Торрент файл
скачать торрент магнет ссылка Добавлен: 08 янв 2012, 00:45
Размер: 7.66 ГБ
Сидеров: 0
Личеров: 9
Автор

СообщениеДобавлено: 08 янв 2012, 00:45 

Не в сети
Супермодератор
Аватара пользователя
Дата регистрации:
11 апр 2010, 18:10
Спасибо: 5801 / 7
Сообщения: 56779
Это безумный, безумный, безумный, безумный мир / It's a Mad Mad Mad Mad World


Перевод: Профессиональный (полное дублирование)
Субтитры:Русские, английские, французские, Испанские,
Формат: DVD9, DVD Video, MPEG2, AC3
Страна: США
Режиссер: Стенли Крамер / Stanley Kramer
Жанр: комедия, приключения, криминал
Продолжительность: 02:39:39
Год выпуска: 1963

В ролях: Спенсер Трейси, Милтон Берл, Этель Мермэн, Микки Руни, Бастер Китон, Питер Фальк

Описание: Старый мошенник на смертном одре признается, что зарыл в укромном месте солидную сумму. Вот только, где это место он уточнить не успел, указав лишь ориентир - большую букву W. Несколько случайных свидетелей его кончины устремляются в погоню за легкой наживой. Всеми правдами и неправдами они намерены сорвать большой куш. Но кто знал, что среди них есть полицейский, для которого возврат упрятанных капиталов в казну всего лишь дело чести.

Рейтинг на IMDB: 7.5/10
Рейтинг MPAA:G
Рейтинг КиноПоиск.RU: 8.026

Видео: 720x480 (NTSC 16:9), MPEG-2 Video, 23,976 fps , ~ 8902 Kbps, 0.532 bit/pixel
Аудио#1: Русский48.0 KHz, AC3, 1/0 ch, ~128Kbps Профессиональный (полное дублирование)
Аудио#2: Английский 48.0 KHz?AC3, 3/2+LFE ch, ~384Kbps
Аудио#3: Русский 48.0 KHz, AC3, 2/0 ch, ~192Kbps ( А.Михалев )
Аудио#4: Русский 48.0 KHz, AC3, 2/0 ch, ~192Kbps Профессиональный (многоголосый, закадровый)
На тему этого фильма Эльдар Рязанов снял своеобразный римейк: «Невероятные приключения итальянцев в России».
В советский кинопрокат фильм вышел в 1965 году с одноголосым закадровым переводом «Центральной Студии Киноактёра». Текст читал Артём Карапетян.
Фильм был сокращён в советском кинопрокате на 12 минут.

Video
ID: 224 (0xE0)
Format: MPEG Video
Format version: Version 2
Format profile: Main@Main
Format settings, BVOP: Yes
Format settings, Matrix: Default
Duration: 21mn 27s
Bit rate mode: Variable
Bit rate: 5 509 Kbps
Nominal bit rate: 8 902 Kbps
Width: 720 pixels
Height: 480 pixels
Display aspect ratio: 16:9
Frame rate: 29.970 fps
Standard: NTSC
Resolution: 8 bits
Colorimetry: 4:2:0
Bits/(Pixel*Frame): 0.532
Stream size: 846 MiB (83%)

Audio #1
ID: 128 (0x80)
Format: AC-3
Format/Info: Audio Coding 3
Duration: 21mn 27s
Bit rate mode: Constant
Bit rate: 128 Kbps
Channel(s): 1 channel
Channel positions: Front: C
Sampling rate: 48.0 KHz
Video delay: -66ms
Stream size: 19.6 MiB (2%)

Audio #2
ID: 129 (0x81)
Format: AC-3
Format/Info: Audio Coding 3
Duration: 21mn 27s
Bit rate mode: Constant
Bit rate: 384 Kbps
Channel(s): 6 channels
Channel positions: Front: L C R, Side: L R, LFE
Sampling rate: 48.0 KHz
Video delay: -66ms
Stream size: 58.9 MiB (6%)

Audio #3
ID: 130 (0x82)
Format: AC-3
Format/Info: Audio Coding 3
Duration: 21mn 27s
Bit rate mode: Constant
Bit rate: 192 Kbps
Channel(s): 2 channels
Channel positions: Front: L R
Sampling rate: 48.0 KHz
Video delay: -66ms
Stream size: 29.5 MiB (3%)

Audio #4
ID: 131 (0x83)
Format: AC-3
Format/Info: Audio Coding 3
Duration: 21mn 27s
Bit rate mode: Constant
Bit rate: 192 Kbps
Channel(s): 2 channels
Channel positions: Front: L R
Sampling rate: 48.0 KHz
Video delay: -66ms
Stream size: 29.5 MiB (3%)









Поделиться:




реклама партнёра


Вернуться к началу
 Профиль Отправить личное сообщение  
 
   Похожие торренты   Автор   Торрент   Размер 
В этой теме нет новых непрочитанных сообщений. Безумный Сесил Б. / Cecil B. DeMented [триллер, комедия, криминал, 2000] DVDRip, Mvo

salma3

57 | 18

1.85 ГБ

В этой теме нет новых непрочитанных сообщений. Безумный тридцатник / Dirty 30 [комедия, 2016] WEB-DLRip, Mvo

salma3

1878 | 533

1.37 ГБ

В этой теме нет новых непрочитанных сообщений. Безумный тридцатник / Dirty 30 [комедия, 2016] WEB-DL 1080p, Mvo

salma3

490 | 70

3.63 ГБ

В этой теме нет новых непрочитанных сообщений. Бешеный Джо / Безумный Джо / Dead Center / Crazy Joe [боевик, криминал, 1993] HDTVRip, Dvo [НТВ+]

salma3

1 | 0

1.36 ГБ

В этой теме нет новых непрочитанных сообщений. Безумный гонщик / Blood Car [Ужасы, комедия, 2007] BDRip, Mvo

salma3

0 | 0

1.46 ГБ

В этой теме нет новых непрочитанных сообщений. Безумный Джек / Blood Salvage [ужасы, комедия, 1990] LDRip, Avo

salma3

24 | 2

897.13 МБ

В этой теме нет новых непрочитанных сообщений. Мой безумный дневник / My Mad Fat Diary [S01] (Бен Карон, Тим Кирби) [драма, комедия, 2013] HDTVRip [ViruseProject]

Dracon

90 | 7

3.32 ГБ


Начать новую тему Ответить на тему  [ 1 сообщение ] 




Для Мосгорсуда, Роскомнадзора и рекламодателей:: mosgorsud-torrent[собачка]yandex.ru