Торрент файл
скачать торрент магнет ссылка Добавлен: 08 янв 2012, 00:31
Размер: 5.25 ГБ
Сидеров: 0
Личеров: 5
Автор

СообщениеДобавлено: 08 янв 2012, 00:31 

Не в сети
Супермодератор
Аватара пользователя
Дата регистрации:
11 апр 2010, 18:10
Спасибо: 5801 / 7
Сообщения: 56779
Пункт Назначения 4 / Final Destination 4/ [3D]

Перевод: Профессиональный (полное дублирование)
Субтитры: Русские, Немецкие, Польские, Голанские, Английские
Формат: DVD9, DVD Video, MPEG2, AC3
Страна: США
Режиссер: Дэвид Р. Эллис
Жанр: ужасы, триллер
Продолжительность: 01:18:26
Год выпуска: 2009
В ролях: Бобби Кампо, Шантель Ван Сантен, Ник Зано, Хейли Уэбб, Майкелти Уильямсон, Криста Аллен, Эндрю Фисцелла, Джастин Велборн

Описание: История на этот раз вращается вокруг Ника О`Бэннона, к молодому человеку приходит видение — на автогонках произойдет ужасная трагедия, жертвами которой станут его друзья и он сам. Как и прежде группе счастливчиков, благодаря Нику, удается выжить, но смерть вовсе не спешит вычеркивать их из своего списка.

Рейтинг на КиноПоиск.RU: 5.331
Рейтинг на MPAA: R [/field]
Рейтинг на IMDB: 4.9/10 [/field]

Видео: 720x576(PAL 2.35:1), 25,000fps,MPEG VIDEO-2,~9 800 Kbps
Аудио #1:Русский 48,0 КГц, AC3, 6 ch, ~448Kbps [Профессиональный (полное дублирование)]
Аудио #2:Английский 48,0 КГц, AC3, 6 ch, ~448Kbps [Оригинал]
Аудио #3:Немецкий 48,0 КГц, AC3, 6 ch, ~448Kbps [ Дубляж]
Аудио #4:Польский 48,0 КГц, AC3, 6 ch, ~448Kbps[Дубляж]

Дополнительная информация :3D -смотреть можно только в специальных анаглиф-очках

Title:
Size: 5.25 Gb ( 5 505 452 KBytes ) - DVD-9
Enabled regions: 1, 2, 3, 4, 5, 6, 7, 8

VTS_01 :
Play Length: 01:18:26
Video: PAL 16:9 (720x576) VBR, Auto Letterboxed
Audio:
English (Dolby AC3, 6 ch)
Deutsch (Dolby AC3, 6 ch)
Polish (Dolby AC3, 6 ch)
Russian (Dolby AC3, 6 ch)
Subtitles:
English
Nederlands
Deutsch
Polish
Russian
Deutsch
Russian

VTS_02 :
Play Length: 00:00:02
Video: PAL 16:9 (720x576) VBR, Auto Letterboxed

VTS_03 :
Play Length: 00:00:02
Video: PAL 4:3 (720x576) VBR

VTS_04 :
Play Length: 00:00:02
Video: PAL 16:9 (720x576) VBR, Auto Letterboxed

VTS_05 :
Play Length: 00:00:12
Video: PAL 16:9 (720x576) VBR, Auto Letterboxed
Audio:
English (Dolby AC3, 6 ch)

VTS_06 :
Play Length: 00:05:50
Video: PAL 16:9 (720x576) VBR, Auto Pan&Scan

VTS_07 :
Play Length: 00:00:02
Video: PAL 16:9 (720x576) VBR, Auto Pan&Scan

VTS_08 :
Play Length: 00:00:02
Video: PAL 16:9 (720x576) VBR, Auto Pan&Scan

VTS_09 :
Play Length: 00:00:02
Video: PAL 16:9 (720x576) VBR, Auto Pan&Scan

VTS_10 :
Play Length: 00:00:02
Video: PAL 16:9 (720x576) VBR, Auto Pan&Scan

VTS_11 :
Play Length: 00:01:11
Video: PAL 4:3 (720x576) VBR
Audio:
Nederlands (Dolby AC3, 6 ch)

VTS_12 :
Play Length: 00:01:09
Video: PAL 16:9 (720x576) VBR, Auto Letterboxed
Audio:
Deutsch (Dolby AC3, 6 ch)

VTS_13 :
Play Length: 00:01:09
Video: PAL 16:9 (720x576) VBR, Auto Letterboxed
Audio:
Polish (Dolby AC3, 6 ch)

VTS_14 :
Play Length: 00:01:11
Video: PAL 4:3 (720x576) VBR
Audio:
Russian (Dolby AC3, 6 ch)

VTS_15 :
Play Length: 00:00:09
Video: PAL 4:3 (720x576) VBR

VTS_16 :
Play Length: 00:01:51
Video: PAL 16:9 (720x576) VBR, Auto Letterboxed
Audio:
Deutsch (Dolby AC3, 2 ch)

VTS_17 :
Play Length: 00:02:09
Video: PAL 4:3 (720x576) VBR
Audio:
English (Dolby AC3, 2 ch)
Subtitles:
Nederlands

VTS_18 :
Play Length: 00:02:27
Video: PAL 4:3 (720x576) VBR
Audio:
English (Dolby AC3, 2 ch)
Subtitles:
Nederlands

General
Complete name: E:\Final_Destination_3D\VIDEO_TS\VTS_01_1.VOB
Format: MPEG-PS
File size: 1 024 MiB
Duration: 16mn 27s
Overall bit rate: 8 701 Kbps

Video
ID: 224 (0xE0)
Format: MPEG Video
Format version: Version 2
Format profile: Main@Main
Format settings, Matrix: Default
Duration: 16mn 27s
Bit rate mode: Variable
Bit rate: 6 564 Kbps
Nominal bit rate: 9 800 Kbps
Width: 720 pixels
Height: 576 pixels
Display aspect ratio: 16:9
Frame rate: 25.000 fps
Standard: PAL
Colorimetry: 4:2:0
Scan type: Interlaced
Scan order: Top Field First
Bits/(Pixel*Frame): 0.633
Stream size: 772 MiB (75%)

Audio #1
ID: 128 (0x80)
Format: AC-3
Format/Info: Audio Coding 3
Duration: 16mn 26s
Bit rate mode: Constant
Bit rate: 448 Kbps
Channel(s): 6 channels
Channel positions: Front: L C R, Surround: L R, LFE
Sampling rate: 48.0 KHz
Stream size: 52.7 MiB (5%)

Audio #2
ID: 129 (0x81)
Format: AC-3
Format/Info: Audio Coding 3
Duration: 16mn 26s
Bit rate mode: Constant
Bit rate: 448 Kbps
Channel(s): 6 channels
Channel positions: Front: L C R, Surround: L R, LFE
Sampling rate: 48.0 KHz
Stream size: 52.7 MiB (5%)

Audio #3
ID: 130 (0x82)
Format: AC-3
Format/Info: Audio Coding 3
Duration: 16mn 26s
Bit rate mode: Constant
Bit rate: 448 Kbps
Channel(s): 6 channels
Channel positions: Front: L C R, Surround: L R, LFE
Sampling rate: 48.0 KHz
Stream size: 52.7 MiB (5%)

Audio #4
ID: 131 (0x83)
Format: AC-3
Format/Info: Audio Coding 3
Duration: 16mn 26s
Bit rate mode: Constant
Bit rate: 448 Kbps
Channel(s): 6 channels
Channel positions: Front: L C R, Surround: L R, LFE
Sampling rate: 48.0 KHz
Stream size: 52.7 MiB (5%)

Text #1
ID: 32 (0x20)
Format: RLE
Format/Info: Run-length encoding

Text #2
ID: 33 (0x21)
Format: RLE
Format/Info: Run-length encoding

Text #3
ID: 34 (0x22)
Format: RLE
Format/Info: Run-length encoding

Text #4
ID: 35 (0x23)
Format: RLE
Format/Info: Run-length encoding

Text #5
ID: 36 (0x24)
Format: RLE
Format/Info: Run-length encoding

Text #6
ID: 37 (0x25)
Format: RLE
Format/Info: Run-length encoding












Поделиться:




реклама партнёра


Вернуться к началу
 Профиль Отправить личное сообщение  
 
   Похожие торренты   Автор   Торрент   Размер 
В этой теме нет новых непрочитанных сообщений. Пункт назначения: Коллекция / Final Destination: The Collection [Ужасы, фантастика, триллер, детектив, 2000-2011] BDRip

vitalikmd

42 | 10

10.6 ГБ

В этой теме нет новых непрочитанных сообщений. Агент Коди Бэнкс 2: Пункт назначения - Лондон / Agent Cody Banks 2: Destination London [боевик, приключения, семейный, 2004] DVD9, Dub+Dvo+Sub

salma3

13 | 5

6.46 ГБ

В этой теме нет новых непрочитанных сообщений. Городские легенды 2: Последний отрезок / Urban legends 2: Final Cut [Ужасы, триллер, слэшер, 2000] WEB-DL 720p, Dvo+Sub

salma3

15 | 3

3.19 ГБ

В этой теме нет новых непрочитанных сообщений. Дети кукурузы 2: Последняя жертва / Children of the Corn II: The Final Sacrifice [ужасы, триллер, 1992] BDRip 1080p, Mvo

salma3

10 | 3

8.29 ГБ

В этой теме нет новых непрочитанных сообщений. Рой / The Hive (Дэвид Яровески) [ужасы, триллер, 2015] WEB-DL 720p, dvo

Dracon

1008 | 61

2.91 ГБ

В этой теме нет новых непрочитанных сообщений. Снято! / Cut! (Дэвид Раунтри) [ужасы, триллер, 2014] DVDRip, dvo

Dracon

325 | 14

1.37 ГБ

В этой теме нет новых непрочитанных сообщений. Рой / The Hive (Дэвид Яровески) [ужасы, триллер, 2015] WEB-DLRip, dvo

Dracon

2884 | 178

1.45 ГБ


Начать новую тему Ответить на тему  [ 1 сообщение ] 




Для Мосгорсуда, Роскомнадзора и рекламодателей:: mosgorsud-torrent[собачка]yandex.ru