Торрент файл
скачать торрент магнет ссылка Добавлен: 08 янв 2012, 00:27
Размер: 6.43 ГБ
Сидеров: 0
Личеров: 4
Автор

СообщениеДобавлено: 08 янв 2012, 00:27 

Не в сети
Супермодератор
Аватара пользователя
Дата регистрации:
11 апр 2010, 18:10
Спасибо: 5801 / 7
Сообщения: 56779
Любовный менеджмент / Management

Перевод: Профессиональный (многоголосый, закадровый)
Субтитры: Русские
Формат: DVD9, DVD Video, MPEG2, AC3
Страна: США, Австралия
Режиссер: Стефен Белбер
Жанр: Kомедия, мелодрама
Продолжительность: 01:29:34
Год выпуска: 2008

В ролях: Дженнифер Энистон, Стив Зан, Марго Мартиндейл, Фред Уорд, Джеймс Хироюки Лиао, Вуди Харрельсон, Кэти О`Грэйди, Йоаланда Суарез, Кевин Хеффернан, Дон Барнс

Описание: Убежденная холостячка, галерейщица Сью разъезжает по стране, продавая дешевые предметы искусства гостиницам и мотелям, где однажды знакомится с менеджером Майком. С первого взгляда Майк влюбляется в Сью, но она, сделав дела, уезжает, даже не простившись. Влюбленный парень кидается за своей любовью и гоняется за Сью по всей Америке…

Рейтинг на IMDB:6.1/10[/field]
Рейтинг MPAA:R[/field]
Рейтинг на КиноПоиск/RU:5.746[/field]

Видео: 720x576(PAL 2.35:1), 25,000fps,MPEG VIDEO-2,~8200Kbps
Аудио#1: Русский 48kHz, Mpeg Layer 6ch, ~448 kbps[Профессиональный (многоголосый, закадровый))]
Аудио#2: Английский 48kHz, Mpeg Layer 6ch, ~448 kbps [Оригинал]
Аудио#3: Русский 48kHz, Mpeg Layer 2ch, ~192 kbps [Двухголосый]


General
Complete name: E:\Lubovnii.Menedgment.2008.DVD9\VIDEO_TS\VTS_01_3.VOB
Format: MPEG-PS
File size: 1 024 MiB
Duration: 15mn 9s
Overall bit rate: 9 444 Kbps

Video
ID: 224 (0xE0)
Format: MPEG Video
Format version: Version 2
Format profile: Main@Main
Format settings, BVOP: Yes
Format settings, Matrix: Default
Format settings, GOP: M=3, N=15
Duration: 15mn 9s
Bit rate mode: Constant
Bit rate: 8 200 Kbps
Width: 720 pixels
Height: 576 pixels
Display aspect ratio: 16:9
Frame rate: 25.000 fps
Standard: PAL
Color space: YUV
Chroma subsampling: 4:2:0
Bit depth: 8 bits
Scan type: Interlaced
Scan order: Top Field First
Bits/(Pixel*Frame): 0.791
Stream size: 885 MiB (86%)

Audio #1
ID: 128 (0x80)
Format: AC-3
Format/Info: Audio Coding 3
Mode extension: CM (complete main)
Duration: 15mn 9s
Bit rate mode: Constant
Bit rate: 448 Kbps
Channel(s): 6 channels
Channel positions: Front: L C R, Side: L R, LFE
Sampling rate: 48.0 KHz
Video delay: -208ms
Stream size: 48.6 MiB (5%)

Audio #2
ID: 129 (0x81)
Format: AC-3
Format/Info: Audio Coding 3
Mode extension: CM (complete main)
Duration: 15mn 9s
Bit rate mode: Constant
Bit rate: 192 Kbps
Channel(s): 2 channels
Channel positions: Front: L R
Sampling rate: 48.0 KHz
Video delay: -112ms
Stream size: 20.8 MiB (2%)

Audio #3
ID: 130 (0x82)
Format: AC-3
Format/Info: Audio Coding 3
Mode extension: CM (complete main)
Duration: 15mn 9s
Bit rate mode: Constant
Bit rate: 448 Kbps
Channel(s): 6 channels
Channel positions: Front: L C R, Side: L R, LFE
Sampling rate: 48.0 KHz
Video delay: -208ms
Stream size: 48.6 MiB (5%)

Text
ID: 32 (0x20)
Format: RLE
Format/Info: Run-length encoding
Duration: 15mn 6s
Video delay: 1s 720ms
Title:
Size: 6.43 Gb ( 6 747 392 KBytes ) - DVD-9
Enabled regions: 1, 2, 3, 4, 5, 6, 7, 8

VTS_01 :
Play Length: 00:00:01+01:29:34
Video: PAL 16:9 (720x576) VBR, Auto Letterboxed
Audio:
Russian (Dolby AC3, 6 ch)
Russian (Dolby AC3, 2 ch)
English (Dolby AC3, 6 ch)
Subtitles:
Russian

VTS_02 :
Play Length: 00:00:01+00:00:10
Video: PAL 4:3 (720x576) VBR
Audio:
Russian (Dolby AC3, 2 ch)

VTS_03 :
Play Length: 00:00:01+00:00:17
Video: PAL 4:3 (720x576) VBR
Audio:
Russian (Dolby AC3, 2 ch)

VTS_04 :
Play Length: 00:00:01+00:13:55
Video: PAL 4:3 (720x576) VBR
Audio:
Russian (Dolby AC3, 2 ch)










Поделиться:




реклама партнёра


Вернуться к началу
 Профиль Отправить личное сообщение  
 
   Похожие торренты   Автор   Торрент   Размер 
В этой теме нет новых непрочитанных сообщений. Любовный менеджмент / Management [драма, мелодрама, комедия, 2008] HDRip, Mvo+Sub [Лицензия]

salma3

52 | 3

1.46 ГБ

В этой теме нет новых непрочитанных сообщений. Доктор Голливуд / Doc Hollywood [Kомедия, мелодрама, 1991] HDTVRip, Mvo [КПК]

salma3

0 | 4

436.91 МБ

В этой теме нет новых непрочитанных сообщений. Как украсть миллион / How to Steal a Million [Kомедия, мелодрама, криминал, 1966] BDRip 720p, Dub+Mvo+Avo+Sub

salma3

52 | 4

5.42 ГБ

В этой теме нет новых непрочитанных сообщений. Turmoil [ Simulation, Indie, Strategy, Management, 2D, 2016] [RePack]

Sykre

0 | 1

116.5 МБ

В этой теме нет новых непрочитанных сообщений. Управление гневом / Anger Management (Роб Шиллер) (Сезон 1-2, Серии 1-74 из ХХ) [2012-2014, Комедия, ситком, HDTVRip-AVC 720р] [DD5.1] [MVO] [LostFilm]

Враг Нароода

3 | 9

49.88 ГБ

В этой теме нет новых непрочитанных сообщений. Любовный прогноз / Сегодняшняя любовь / Love Forecast / Today's Love (Чжин Пё Пак / Jin-pyo Park) [2015г., Южная Корея, комедия, мелодрама, HDRip] mvo

Alfredovich

4 | 3

1.47 ГБ

В этой теме нет новых непрочитанных сообщений. Масло в огонь / De l'huile sur le feu [Kомедия, 2011] SATRip, Mvo [НТВ+]

salma3

6 | 4

1.27 ГБ


Начать новую тему Ответить на тему  [ 1 сообщение ] 




Для Мосгорсуда, Роскомнадзора и рекламодателей:: mosgorsud-torrent[собачка]yandex.ru