Торрент файл
скачать торрент магнет ссылка Добавлен: 08 янв 2012, 00:26
Размер: 7.72 ГБ
Сидеров: 5
Личеров: 6
Автор

СообщениеДобавлено: 08 янв 2012, 00:26 

Не в сети
Супермодератор
Аватара пользователя
Дата регистрации:
11 апр 2010, 18:10
Спасибо: 5798 / 7
Сообщения: 56779
Господин никто / mr. Nobody

Перевод: Профессиональный (двухголосый), cубтитры: есть
Субтитры: Русские
Формат: DVD9, DVD Video, MPEG2, AC3
Страна: Германия, Канада, Франция, Бельгия
Режиссер: Жако Ван Дормель
Жанр: фантастика, фэнтези, мелодрама, драма
Продолжительность: 02:18:09
Год выпуска: 2009
В ролях: Джаред Лето, Дайан Крюгер, Сара Полли, Лин Дэн Пэм, Рис Иванс, Тоби Регбо, Джуно Темпл, Клер Стоун, Томас Бирн, Одри Джакомини

Описание: Действие картины происходит в не слишком отдаленном будущем. Главный герой внезапно просыпается в 2092 году дряхлым стариком и понимает, что он является 120-летним последним смертным на планете, доживающим свой век среди счастливых бессмертных людей.

Рейтинг на IMDB:7.6/10
Рейтинг на КиноПоиск.RU:8.402[/field]

Видео: 720x576(PAL 2.35:1), 25,000fps,MPEG VIDEO-2,~8500Kbps
Аудио#1: Русский 48kHz, Mpeg Layer 6ch, ~448 kbps[Профессиональный (двухголосый)(от CP-диджитал)]
Аудио#2: Английцский 48kHz, Mpeg Layer 6ch, ~448 kbps [Оригинал]
Аудио#3: Русский 48kHz, Mpeg Layer 6ch, ~1510 kbps[Профессиональный (двухголосый)(от CP-диджитал)]

Title:
Size: 7.72 Gb ( 8 096 906 KBytes ) - DVD-9
Enabled regions: 1, 2, 3, 4, 5, 6, 7, 8

VTS_01 :
Play Length: 00:00:05
Video: PAL 4:3 (720x576) VBR

VTS_02 :
Play Length: 00:00:15
Video: PAL 16:9 (720x576) VBR, Auto Letterboxed
Audio:
Not specified (Dolby AC3, 6 ch)
Not specified (Dolby AC3, 6 ch)
Not specified (Dolby AC3, 6 ch)
Subtitles:
Not specified

VTS_03 :
Play Length: 00:02:25
Video: PAL 16:9 (720x576) VBR, Auto Letterboxed
Audio:
Not specified (Dolby AC3, 2 ch)
Not specified (Dolby AC3, 2 ch)
Not specified (Dolby AC3, 2 ch)
Subtitles:
Not specified

VTS_04 :
Play Length: 02:13:23
Video: PAL 16:9 (720x576) VBR, Auto Letterboxed
Audio:
Russian (Dolby AC3, 6 ch)
English (Dolby AC3, 6 ch)
Russian (DTS, 6 ch)
Subtitles:
Russian

VTS_05 :
Play Length: 00:01:33
Video: PAL 16:9 (720x576) VBR, Auto Letterboxed
Audio:
Not specified (Dolby AC3, 2 ch)
Subtitles:
Not specified

VTS_06 :
Play Length: 00:01:37
Video: PAL 4:3 (720x576) VBR
Audio:
Not specified (Dolby AC3, 2 ch)
Subtitles:
Not specified

VTS_07 :
Play Length: 00:02:10
Video: PAL 16:9 (720x576) VBR, Auto Letterboxed
Audio:
Not specified (Dolby AC3, 2 ch)
Subtitles:
Not specified

VTS_08 :
Play Length: 00:02:10
Video: PAL 4:3 (720x576) VBR
Audio:
Not specified (Dolby AC3, 2 ch)
Subtitles:
Not specified

VTS_09 :
Play Length: 00:01:52
Video: PAL 16:9 (720x576) VBR, Auto Letterboxed
Audio:
Not specified (Dolby AC3, 6 ch)
Subtitles:
Not specified

VTS_10 :
Play Length: 00:02:47
Video: PAL 16:9 (720x576) VBR, Auto Letterboxed
Audio:
Not specified (Dolby AC3, 2 ch)
General
Complete name: J:\Gospodin.Nikto.2009.DVD-9\VIDEO_TS\VTS_04_1.VOB
Format: MPEG-PS
File size: 1 024 MiB
Duration: 21mn 17s
Overall bit rate: 6 725 Kbps

Video
ID: 224 (0xE0)
Format: MPEG Video
Format version: Version 2
Format profile: Main@Main
Format settings, BVOP: Yes
Format settings, Matrix: Default
Duration: 21mn 17s
Bit rate mode: Variable
Bit rate: 4 185 Kbps
Nominal bit rate: 8 500 Kbps
Width: 720 pixels
Height: 576 pixels
Display aspect ratio: 16:9
Frame rate: 25.000 fps
Standard: PAL
Color space: YUV
Chroma subsampling: 4:2:0
Bit depth: 8 bits
Scan type: Progressive
Bits/(Pixel*Frame): 0.404
Stream size: 637 MiB (62%)

Audio #1
ID: 128 (0x80)
Format: AC-3
Format/Info: Audio Coding 3
Mode extension: CM (complete main)
Duration: 21mn 17s
Bit rate mode: Constant
Bit rate: 448 Kbps
Channel(s): 6 channels
Channel positions: Front: L C R, Side: L R, LFE
Sampling rate: 48.0 KHz
Stream size: 68.2 MiB (7%)

Audio #2
ID: 129 (0x81)
Format: AC-3
Format/Info: Audio Coding 3
Mode extension: CM (complete main)
Duration: 21mn 17s
Bit rate mode: Constant
Bit rate: 448 Kbps
Channel(s): 6 channels
Channel positions: Front: L C R, Side: L R, LFE
Sampling rate: 48.0 KHz
Stream size: 68.2 MiB (7%)

Audio #3
ID: 138 (0x8A)
Format: DTS
Format/Info: Digital Theater Systems
Duration: 21mn 17s
Bit rate mode: Constant
Bit rate: 1 510 Kbps
Channel(s): 6 channels
Channel positions: Front: L C R, Side: L R, LFE
Sampling rate: 48.0 KHz
Bit depth: 24 bits
Stream size: 230 MiB (22%)








Поделиться:




реклама партнёра


Вернуться к началу
 Профиль Отправить личное сообщение  
 
   Похожие торренты   Автор   Торрент   Размер 
В этой теме нет новых непрочитанных сообщений. Тото-герой / Toto le héros (Жако ван Дормель / Jaco van Dormael) [1991г., драма, комедия, DVDRip-AVC] avo

Alfredovich

13 | 4

1.46 ГБ

В этой теме нет новых непрочитанных сообщений. Новейший завет / Le tout nouveau testament (Жако ван Дормель) [Комедия, 2015] WEB-DLRip, Dub [iTunes]

Dracon

8209 | 193

1.46 ГБ

В этой теме нет новых непрочитанных сообщений. Новейший завет / Le tout nouveau testament (Жако ван Дормель) [Комедия, 2015] WEB-DL 720p, Dub [iTunes]

Dracon

4873 | 119

3.5 ГБ

В этой теме нет новых непрочитанных сообщений. Новейший завет / Le tout nouveau testament (Жако ван Дормель) [Комедия, 2015] WEB-DL 1080p, Dub [iTunes]

Dracon

4826 | 182

3.9 ГБ

В этой теме нет новых непрочитанных сообщений. Фальшивая служанка / La fausse suivante / (Бенуа Жако / Benoit Jacquot) [2000г., Франция, комедийная мелодрама, экранизация, SATRip] sub

Alfredovich

4 | 2

744.14 МБ

В этой теме нет новых непрочитанных сообщений. 3 сердца / 3 coeurs (Бенуа Жако) [Драма, 2014] HDRip, Mvo [лицензия]

Dracon

2 | 3

1.37 ГБ

В этой теме нет новых непрочитанных сообщений. 3 сердца / 3 coeurs (Бенуа Жако) [Драма, 2014] HDRip, Mvo [лицензия]

Dracon

0 | 3

2.06 ГБ


Начать новую тему Ответить на тему  [ 1 сообщение ] 




Для Мосгорсуда, Роскомнадзора и рекламодателей:: mosgorsud-torrent[собачка]yandex.ru