Торрент файл
скачать торрент магнет ссылка Добавлен: 08 янв 2012, 00:20
Размер: 5.61 ГБ
Сидеров: 0
Личеров: 4
Автор

СообщениеДобавлено: 08 янв 2012, 00:20 

Не в сети
Супермодератор
Аватара пользователя
Дата регистрации:
11 апр 2010, 18:10
Спасибо: 5801 / 7
Сообщения: 56779
Нерожденный / The Unborn

Перевод: Профессиональный (полное дублирование)
Субтитры: Отсутствуют
Формат: DVD9, DVD Video, MPEG2, AC3
Страна: США
Режиссер: Дэвид С. Гойер
Жанр: Ужасы, триллер, детектив
Продолжительность: 01:25:06
Год выпуска: 2009
В ролях: Одетт Юстман, Гари Олдман, Кэм Жиганде, Миган Гуд, Идрис Эльб, Джейн Александр, Аттикус Шаффер, Джеймс Римар, Карла Гуджино, К.С. Ли ...

Роли дублировали:Наталья Фищук, Алексей Иващенко, Михаил Тихонов, Марианна Шульц, Владимир Герасимов, ...

Описание: Кейси Белл ненавидела свою мать за то, что та ее бросила. Но, когда начинает твориться необъяснимое, Кейси понимает, почему мама ушла. Измученная кошмарами и присутствием злого духа, она обращается к единственному человеку, который, возможно, способен ее спасти — опытному советчику по спиритуальным вопросам, а также известному экзорцисту по имени Сендак.

Рейтинг на КиноПоиск: 5.869 (6 585)
Рейтинг на IMDb: 4.5/10
Рейтинг MPAA: PG-13

Видео: 720X576 (PAL 16:9), 25.000fps, MPEG-2 Video, ~9 800Kbps
Аудио#1: Русский 48.0KHz, AC-3, 6 ch, ~384Kbps [Профессиональный (полное дублирование)]
Аудио#2: Русский 48.0KHz, DTS, 6 ch, ~755Kbps [Профессиональный (полное дублирование)]



Дублированный трейлер к фильму

Слоган: «Он хочет родиться...сейчас»

General
Complete name: C:\загрузка\The_Unborn_[tfile.ru]\VIDEO_TS\VTS_02_3.VOB
Format: MPEG-PS
File size: 1 024 MiB
Duration: 16mn 25s
Overall bit rate: 8 719 Kbps

Video
ID: 224 (0xE0)
Format: MPEG Video
Format version: Version 2
Format profile: Main@Main
Format settings, Matrix: Default
Duration: 16mn 25s
Bit rate mode: Variable
Bit rate: 7 234 Kbps
Nominal bit rate: 9 800 Kbps
Width: 720 pixels
Height: 576 pixels
Display aspect ratio: 16/9
Frame rate: 25.000 fps
Standard: PAL
Colorimetry: 4:2:0
Scan type: Interlaced
Scan order: Top Field First
Bits/(Pixel*Frame): 0.698
Stream size: 850 MiB (83%)

Audio #1
ID: 128 (0x80)
Format: AC-3
Format/Info: Audio Coding 3
Duration: 16mn 25s
Bit rate mode: Constant
Bit rate: 384 Kbps
Channel(s): 6 channels
Channel positions: Front: L C R, Surround: L R, LFE
Sampling rate: 48.0 KHz
Video delay: -312ms
Stream size: 45.1 MiB (4%)

Audio #2
ID: 137 (0x89)
Format: DTS
Format/Info: Digital Theater Systems
Duration: 16mn 25s
Bit rate mode: Constant
Bit rate: 755 Kbps
Channel(s): 6 channels
Channel positions: Front: L C R, Surround: L R, LFE
Sampling rate: 48.0 KHz
Resolution: 24 bits
Video delay: -312ms
Stream size: 88.6 MiB (9%)

Menu
Format: DVD-Video

Сценарий: Дэвид С. Гойер
Продюсер: Майкл Бэй, Уильям С. Бисли, Джессика Борсицки, ...
Оператор: Джеймс Хокинсон
Композитор: Рамин Джавади
Бюджет: $16 000 000
Сборы в США: $42 670 410
Сборы в мире: + $33 843 640 = $76 514 050
Сборы в России: $1 607 887
DVD в США: $9 147 053
Зрители: Россия267.1 тыс.
Премьера мир: 9 января 2009
Премьера РФ: 22 января 2009, «UPI»
Релиз на DVD: 3 марта 2009, «Юниверсал Пикчерс Рус»

Производство:
1. Phantom Four
2. Platinum Dunes
Спецэффекты:
1. Asylum VFX - визуальные эффекты




















Поделиться:




реклама партнёра


Вернуться к началу
 Профиль Отправить личное сообщение  
 
   Похожие торренты   Автор   Торрент   Размер 
В этой теме нет новых непрочитанных сообщений. Неродившийся ребенок / The Unborn [ужасы, фантастика, триллер, драма, 1991] DVDRip, Mvo

salma3

28 | 1

1.37 ГБ

В этой теме нет новых непрочитанных сообщений. Демоны да Винчи / Da Vinci's Demons [03x01-10 из 10] (Майкл Дж. Бассетт, Дэвид С. Гойер, Питер Хор) [2015, Драма, приключения, HDTVRip | AlexFilm]

Dracon

217 | 274

6.26 ГБ

В этой теме нет новых непрочитанных сообщений. Демоны Да Винчи / Da Vinci's Demons [03] (Майкл Дж. Бассетт, Дэвид С. Гойер, Пол Вильшурст) [Драма, Приключения, 2015] HDTVRip [Cold Film]

Dracon

1651 | 899

5.16 ГБ

В этой теме нет новых непрочитанных сообщений. Воскрешение / Resurrection [ужасы, триллер, драма, криминал, детектив, 1999] DVD9, Dvo+Avo+Sub

salma3

16 | 3

5.34 ГБ

В этой теме нет новых непрочитанных сообщений. Оно / It Follows (Дэвид Роберт Митчелл) [Ужасы, детектив, триллер, 2014] BDRip 720p, [Студия Пиратского дубляжа]+Sub

Dracon

146 | 6

4.07 ГБ

В этой теме нет новых непрочитанных сообщений. Демоны Да Винчи / Da Vinci's Demons [S01-03] (Майкл Дж. Бассетт, Дэвид С. Гойер, Пол Вильшурст) [2013-2015, Драма, Приключения, HDTVRip 720p | AlexFilm]

Dracon

16 | 89

49.8 ГБ

В этой теме нет новых непрочитанных сообщений. Демоны Да Винчи / Da Vinci's Demons [03] (Майкл Дж. Бассетт, Дэвид С. Гойер, Пол Вильшурст) [Драма, Приключения, 2015] HDTVRip 720p [Cold Film]

Dracon

737 | 524

17.9 ГБ


Начать новую тему Ответить на тему  [ 1 сообщение ] 




Для Мосгорсуда, Роскомнадзора и рекламодателей:: mosgorsud-torrent[собачка]yandex.ru