Торрент файл
скачать торрент магнет ссылка Добавлен: 08 янв 2012, 00:20
Размер: 7.47 ГБ
Сидеров: 0
Личеров: 10
Автор

СообщениеДобавлено: 08 янв 2012, 00:20 

Не в сети
Супермодератор
Аватара пользователя
Дата регистрации:
11 апр 2010, 18:10
Спасибо: 5888 / 7
Сообщения: 56778
Законопослушный гражданин [Режиссерская версия] / Law Abiding Citizen [Director's Cut]

Перевод: Профессиональный (многоголосый, закадровый)
Субтитры: Русские, Английские
Формат: DVD9, DVD Video, MPEG2, AC3
Страна: США
Режиссер: Ф. Гари Грей
Жанр: триллер, драма
Продолжительность: 01:57:58
Год выпуска: 2009

В ролях: Джерард Батлер, Джэми Фокс, Майкл Гэмбон, Лесли Бибб, Джош Стюарт, Реджина Холл, Брюс МакГил, Кристиан Штолте, Виола Дэвис, Колм Мини

Описание: В результате бандитского налета Клайд Шелтон (Джерард Батлер) теряет семью: на его глазах преступники убивают жену и дочь. Злоумышленники пойманы, но, если первый получает сполна (смертная казнь посредством инъекций яда), то второй, помогший следствию, выходит на свободу. Шелтон ищет правды у помощника окружного прокурора Ника Райса (Джэми Фокс), но тот, блюдя корпоративность, отправляет вдовца восвояси. Десять лет спустя Клайд находит убийцу и вершит самосуд. Он рад оказаться за решёткой, ведь даже тюремные стены не могут помешать воплощению его личной операции мести. И всё это ради того, чтобы доказать Райсу – десять лет назад тот был неправ…

Рейтинг на IMDB: 7.2/10
Рейтинг на Кинопоиск.RU: 7.954
Рейтинг MPAA R

Видео: 720x480 (NTSC 16/9), 23.976 fps, MPEG Video ~6139 kbps avg, 0.741 bit/pixel
Аудио #1: Русский 48 kHz, Dolby AC3, 6 ch, ~448 kbps avg [Профессиональный (многоголосый, закадровый)]
Аудио #2: Русский 48 kHz, Dolby AC3, 6 ch, ~448 kbps avg [Авторский (Сербин)]
Аудио #3:Английский 48 kHz, Dolby AC3, 6 ch, ~448 kbps avg [Оригинал]

Доп. информация: Издатель: КиноМания

General
Complete name: D:\Моя\Раздача\zakonoposluchnuy_gragdanin_[tfile.ru]\VIDEO_TS\VTS_01_1.VOB
Format: MPEG-PS
File size: 1 024 MiB
Duration: 18mn 21s
Overall bit rate: 7 792 Kbps

Video
ID: 224 (0xE0)
Format: MPEG Video
Format version: Version 2
Format profile: Main@Main
Format settings, BVOP: Yes
Format settings, Matrix: Default
Duration: 18mn 21s
Bit rate mode: Variable
Bit rate: 6 139 Kbps
Nominal bit rate: 9 800 Kbps
Width: 720 pixels
Height: 480 pixels
Display aspect ratio: 16:9
Frame rate: 23.976 fps
Standard: NTSC
Resolution: 8 bits
Colorimetry: 4:2:0
Scan type: Progressive
Scan order: 2:3 Pulldown
Bits/(Pixel*Frame): 0.741
Stream size: 806 MiB (79%)

Audio #1
ID: 128 (0x80)
Format: AC-3
Format/Info: Audio Coding 3
Duration: 18mn 21s
Bit rate mode: Constant
Bit rate: 448 Kbps
Channel(s): 6 channels
Channel positions: Front: L C R, Surround: L R, LFE
Sampling rate: 48.0 KHz
Stream size: 58.8 MiB (6%)

Audio #2
ID: 129 (0x81)
Format: AC-3
Format/Info: Audio Coding 3
Duration: 18mn 21s
Bit rate mode: Constant
Bit rate: 448 Kbps
Channel(s): 6 channels
Channel positions: Front: L C R, Surround: L R, LFE
Sampling rate: 48.0 KHz
Stream size: 58.8 MiB (6%)

Audio #3
ID: 130 (0x82)
Format: AC-3
Format/Info: Audio Coding 3
Duration: 18mn 21s
Bit rate mode: Constant
Bit rate: 448 Kbps
Channel(s): 6 channels
Channel positions: Front: L C R, Surround: L R, LFE
Sampling rate: 48.0 KHz
Stream size: 58.8 MiB (6%)

Menu











Поделиться:




реклама партнёра


Вернуться к началу
 Профиль Отправить личное сообщение  
 
   Похожие торренты   Автор   Торрент   Размер 
В этой теме нет новых непрочитанных сообщений. Гражданин / The Citizen (Сэм Кади / Sam Kadi) [2012г., драма, HDRip] АVO + Sub

Alfredovich

7 | 2

794.2 МБ

В этой теме нет новых непрочитанных сообщений. Скалолаз / Cliffhanger [боевик, триллер, приключения, 1993] DVD9, Dvo+Sub [Режиссерская версия]

salma3

13 | 7

7.06 ГБ

В этой теме нет новых непрочитанных сообщений. Инсайдеры / Nae-bu-ja-deul (У Мин-хо / Woo Min-ho) [2015г., Южная Корея, триллер, драма, криминал, WEB-DLRip] [Режиссерская версия] DVO

Alfredovich

23 | 7

2.1 ГБ

В этой теме нет новых непрочитанных сообщений. Сицилиец / The Sicilian [боевик, драма, криминал, 1987] BDRip 1080p, Mvo [Режиссерская версия]

salma3

42 | 29

24.27 ГБ

В этой теме нет новых непрочитанных сообщений. Порт назначения / Daap hyut cam mui (Драма, криминал, детектив, 2015) HDRip от MegaPeer | Режиссерская версия | A

marya111

42 | 0

745.77 МБ

В этой теме нет новых непрочитанных сообщений. Порт назначения / Daap hyut cam mui (драма, криминал, детектив, 2015) BDRip 1080p | А | Режиссерская версия

marya111

3 | 0

11.5 ГБ

В этой теме нет новых непрочитанных сообщений. 37,2 по утрам / 37°2 le matin / Betty Blue (Жан-Жак Бенекс / Jean-Jacques Beineix) [1986г., Франция, драма, HDRip] [Режиссерская версия] VO

Alfredovich

8 | 3

2.18 ГБ


Начать новую тему Ответить на тему  [ 1 сообщение ] 




Для Мосгорсуда, Роскомнадзора и рекламодателей:: mosgorsud-torrent[собачка]yandex.ru