Торрент файл
скачать торрент магнет ссылка Добавлен: 08 янв 2012, 00:17
Размер: 5.35 ГБ
Сидеров: 0
Личеров: 8
Автор

СообщениеДобавлено: 08 янв 2012, 00:17 

Не в сети
Супермодератор
Аватара пользователя
Дата регистрации:
11 апр 2010, 18:10
Спасибо: 5801 / 7
Сообщения: 56779
Невезучие / Tais-toi!

Перевод: Профессиональный (полное дублирование)
Субтитры: Русские
Формат: DVD9, DVD Video, MPEG2, AC3
Страна: Франция
Режиссер: Франсис Вебер
Жанр: Комедия, криминал
Продолжительность: 01:23:32
Год выпуска: 2003

В ролях: Жерар Депардье, Жан Рено, Ришар Берри, Андре Дюссолье, Жан-Пьер Мало, Жан-Мишель Нуари, Лоран Гамелон, Орельен Рекуан, Венсан Москато, Тикки Ольгадо ...

Роли дублировали: Владимир Антоник, Игорь Тарадайкин, Александр Клюквин, Вадим Андреев, Олег Куценко...

Описание: Руби успевает спрятать награбленные деньги прежде, чем угодить в тюрьму, где знакомится верзилой Квентином. Теперь они вместе ломают голову над тем, как выбраться на волю и вытащить деньги из тайника… К тому же Руби мечтает отомстить своим бывшим компаньонам, ответственным за смерть его возлюбленной! Но вот как-то им все время не везет! Однако, не даром говорят, если долго мучиться…

Рейтинг на КиноПоиск: 7.828 (7 427)
Рейтинг на IMDb: 7.0/10

Видео: 720X576 (PAL 16:9), 25.000fps, MPEG-2 Video, ~9 000Kbps
Аудио#1: Русский 48.0KHz, AC-3, 6 ch ,~448Kbps [Профессиональный (полное дублирование), СP-Digital]
Аудио#2: Русский 48.0KHz, DTS, 6 ch, ~755Kbps [Профессиональный (полное дублирование), СP-Digital]
Аудио#3: Французский 48.0KHz, AC-3, 6 ch ,~448Kbps [Оригинал]


Трейлер к фильму
Слоган «Им наконец повезло!»
Сценарий Франсис Вебер, Серж Фридман
Продюсер Саид Бен Саид, Жерар Готье
ОператорЛючано Товоли
Композитор Марко Принц
Бюджет ?27 440 000
Сборы в США $312 824
Сборы в мире + $27 408 148 = $27 720 972
Сборы в России $1 023 207
Зрители Франция2.94 млн.Италия252.7 тыс.Бельгия178.3 тыс.
Премьера мир 22 октября 2003
Премьера РФ 25 декабря 2003, «Централ Партнершип»
Релиз на DVD 20 августа 2009, «CP-DIGITAL»[/field]

General
Complete name: C:\загрузка\Ruby_&_Quentin_[tfile.ru]\VIDEO_TS\VTS_06_3.VOB
Format: MPEG-PS
File size: 1 024 MiB
Duration: 19mn 10s
Overall bit rate: 7 468 Kbps

Video
ID: 224 (0xE0)
Format: MPEG Video
Format version: Version 2
Format profile: Main@Main
Format settings, Matrix: Default
Duration: 19mn 9s
Bit rate mode: Variable
Bit rate: 5 521 Kbps
Nominal bit rate: 9 000 Kbps
Width: 720 pixels
Height: 576 pixels
Display aspect ratio: 16/9
Frame rate: 25.000 fps
Standard: PAL
Colorimetry: 4:2:0
Scan type: Interlaced
Scan order: Top Field First
Bits/(Pixel*Frame): 0.533
Stream size: 757 MiB (74%)

Audio #1
ID: 128 (0x80)
Format: AC-3
Format/Info: Audio Coding 3
Duration: 19mn 10s
Bit rate mode: Constant
Bit rate: 448 Kbps
Channel(s): 6 channels
Channel positions: Front: L C R, Surround: L R, LFE
Sampling rate: 48.0 KHz
Video delay: -720ms
Stream size: 61.4 MiB (6%)

Audio #2
ID: 129 (0x81)
Format: AC-3
Format/Info: Audio Coding 3
Duration: 19mn 10s
Bit rate mode: Constant
Bit rate: 448 Kbps
Channel(s): 6 channels
Channel positions: Front: L C R, Surround: L R, LFE
Sampling rate: 48.0 KHz
Video delay: -720ms
Stream size: 61.4 MiB (6%)

Audio #3
ID: 138 (0x8A)
Format: DTS
Format/Info: Digital Theater Systems
Duration: 19mn 9s
Bit rate mode: Constant
Bit rate: 755 Kbps
Channel(s): 6 channels
Channel positions: Front: L C R, Surround: L R, LFE
Sampling rate: 48.0 KHz
Resolution: 24 bits
Video delay: -720ms
Stream size: 103 MiB (10%)

Text
ID: 32 (0x20)
Format: RLE
Format/Info: Run-length encoding
Video delay: -720ms

Menu
Format: DVD-Video

* В фильме показывается отрывок из мультфильма «Ледниковый период» (эпизод, где Квентин заходит в кинотеатр после неудачного ограбления).
* Рабочим названием фильма было «Руби и Квентин».





















Поделиться:




реклама партнёра


Вернуться к началу
 Профиль Отправить личное сообщение  
 
   Похожие торренты   Автор   Торрент   Размер 
В этой теме нет новых непрочитанных сообщений. Как правильно смеяться над президентом ("Игрушка", 1976, Франсис Вебер, Пьер Ришар) Меняйлов [2011, фильм о фильме, WEBRip]

vairgin

1 | 2

401.55 МБ

В этой теме нет новых непрочитанных сообщений. Невезучие / La chèvre [Комедия, криминал, приключения, 1981] BDRip 1080p, Dub+Mvo+Dvo+Sub

salma3

42 | 2

7.65 ГБ

В этой теме нет новых непрочитанных сообщений. Невезучие / La chevre [комедия, криминал, приключения, 1981] BDRip 720p, Dub+Mvo+Dvo+Sub

salma3

16 | 3

5.31 ГБ

В этой теме нет новых непрочитанных сообщений. Невезучие / Pure Luck [комедия, криминал, детектив, 1991] DVDRip, Mvo

salma3

93 | 8

1.46 ГБ

В этой теме нет новых непрочитанных сообщений. Идеальный друг / Un ami parfait / Ein perfekter Freund (Франсис Жиро / Francis Girod) [2006г., Франция, триллер, криминал, DVDRip-AVC]MVO

Alfredovich

32 | 6

2.18 ГБ

В этой теме нет новых непрочитанных сообщений. Плохие парни 2 / Bad Boys II [боевик, триллер, комедия, 2003] DVD9, Dub+Sub

salma3

23 | 8

5.66 ГБ

В этой теме нет новых непрочитанных сообщений. Агент Коди Бэнкс / Agent Cody Banks [Комедия, боевик, приключения, фантастика, 2003] DVD9, Dub+Dvo+Sub

salma3

5 | 6

7.86 ГБ


Начать новую тему Ответить на тему  [ 1 сообщение ] 




Для Мосгорсуда, Роскомнадзора и рекламодателей:: mosgorsud-torrent[собачка]yandex.ru