Торрент файл
скачать торрент магнет ссылка Добавлен: 08 янв 2012, 00:13
Размер: 6.1 ГБ
Сидеров: 0
Личеров: 3
Автор

СообщениеДобавлено: 08 янв 2012, 00:13 

Не в сети
Супермодератор
Аватара пользователя
Дата регистрации:
11 апр 2010, 18:10
Спасибо: 5802 / 7
Сообщения: 56779
Флирт со зверем / Someone Like You

Перевод: Профессиональный (полное дублирование)
Субтитры: Английский,русский,украинский
Формат: DVD9, DVD Video, MPEG2, AC3
Страна: США
Режиссер: Тони Голдуин
Жанр: Комедия, мелодрама
Продолжительность: 01:33:17
Год выпуска: 2001

В ролях: Эшли Джадд, Грег Киннер, Хью Джекман, Мариса Томей, Эллен Баркин, Катрин Дент, Питер Фридман, Лаура Риган, Сью Джин Сонг, Кейт Реддин ...

Описание: Джейн — молодая и чертовски сексапильная девушка. Она живет в Нью-Йорке. Работает в популярном телешоу и полна решимости добиться успеха как на работе, так и в личной жизни. За ней ухаживает Рей, новый исполнительный продюсер. Их роман развивается быстро и красиво.
Вскоре влюбленная парочка начинает подыскивать гнездышко для совместного проживания. Однако неожиданно и без объяснений Рей прекращает этот бурный роман, и Джейн остается одна — покинутая и несчастная. Размышляя о случившемся. Джейн приходит к выводу. Что все мужики — животные. Осознав свое превосходство, она решает написать разоблачающую статью в женский журнал, где сравнивает мужчин с животными во время брачного периода.
В качестве подопытного кролика она выбирает своего коллегу Эдди — настоящего бабника и типичного образца мужчины-самца. Но кажется она переоценила свои силы, и Эдди доказывает ей, что женщины, хотя они и более утонченные, не сильно отличаются от мужчин.


Рейтинг на КиноПоиск: 7.391 (1 935)
Рейтинг на IMDb: 5.8/10
Рейтинг MPAA: PG-13

Видео: 720X576 (PAL 16:9), 25.000fps, MPEG-2 Video, ~7 500Kbps
Аудио#1: Английский 48.0KHz, AC-3, 6 ch, ~384Kbps [Оригинал]
Аудио#2: Русский 48.0KHz, AC-3, 6 ch, ~448Kbps [Профессиональный (полное дублирование)]
Аудио#3: Английский 48.0KHz, AC-3, 2 ch, ~96Kbps [Аудио комментарий]


Трейлер к фильму
Слоган: «The story about the one that got away and the one she never saw coming.»

Сценарий: Лаура Зигман, Элизабет Чэндлер
Продюсер: Джеймс Чори, Линда Обст
Оператор: Энтони Б. Ричмонд
Композитор: Джед Фойер, Гордон Кеннеди, Рольф Кент, ...
Бюджет: $23 000 000
Сборы в США: $27 343 067
Сборы в мире: + $11 346 873 = $38 689 940
Зрители: США5.07 млн.Испания243.2 тыс.Венгрия96.1 тыс.
Премьера (мир): 30 марта 2001
Премьера (РФ): 14 июня 2001, «Гемини Киномир»
Релиз на DVD: 11 июня 2009, 5 марта 2009, «Двадцатый Век Фокс СНГ»

General
Complete name: C:\загрузка\Someone_Like_You_[tfile.ru]\VIDEO_TS\VTS_01_2.VOB
Format: MPEG-PS
File size: 1 024 MiB
Duration: 19mn 43s
Overall bit rate: 7 257 Kbps

Video
ID: 224 (0xE0)
Format: MPEG Video
Format version: Version 2
Format profile: Main@Main
Format settings, Matrix: Default
Duration: 19mn 43s
Bit rate mode: Variable
Bit rate: 5 273 Kbps
Nominal bit rate: 7 500 Kbps
Width: 720 pixels
Height: 576 pixels
Display aspect ratio: 16/9
Frame rate: 25.000 fps
Standard: PAL
Colorimetry: 4:2:0
Scan type: Progressive
Scan order: Top Field First
Bits/(Pixel*Frame): 0.509
Stream size: 744 MiB (73%)

Audio #1
ID: 128 (0x80)
Format: AC-3
Format/Info: Audio Coding 3
Duration: 19mn 43s
Bit rate mode: Constant
Bit rate: 384 Kbps
Channel(s): 6 channels
Channel positions: Front: L C R, Surround: L R, LFE
Sampling rate: 48.0 KHz
Video delay: -464ms
Stream size: 54.2 MiB (5%)

Audio #2
ID: 129 (0x81)
Format: AC-3
Format/Info: Audio Coding 3
Duration: 19mn 43s
Bit rate mode: Constant
Bit rate: 448 Kbps
Channel(s): 6 channels
Channel positions: Front: L C R, Surround: L R, LFE
Sampling rate: 48.0 KHz
Video delay: -464ms
Stream size: 63.2 MiB (6%)

Audio #3
ID: 130 (0x82)
Format: AC-3
Format/Info: Audio Coding 3
Duration: 19mn 43s
Bit rate mode: Constant
Bit rate: 96.0 Kbps
Channel(s): 2 channels
Channel positions: L R
Sampling rate: 48.0 KHz
Video delay: -464ms
Stream size: 13.5 MiB (1%)

Audio #4
ID: 131 (0x83)
Format: AC-3
Format/Info: Audio Coding 3
Duration: 19mn 43s
Bit rate mode: Constant
Bit rate: 384 Kbps
Channel(s): 2 channels
Channel positions: L R
Sampling rate: 48.0 KHz
Video delay: -464ms
Stream size: 54.2 MiB (5%)

Audio #5
ID: 132 (0x84)
Format: AC-3
Format/Info: Audio Coding 3
Duration: 19mn 43s
Bit rate mode: Constant
Bit rate: 384 Kbps
Channel(s): 6 channels
Channel positions: Front: L C R, Surround: L R, LFE
Sampling rate: 48.0 KHz
Video delay: -464ms
Stream size: 54.2 MiB (5%)

Text #1
ID: 32 (0x20)
Format: RLE
Format/Info: Run-length encoding
Video delay: -464ms

Text #2
ID: 33 (0x21)
Format: RLE
Format/Info: Run-length encoding
Video delay: -464ms

Text #3
ID: 34 (0x22)
Format: RLE
Format/Info: Run-length encoding
Video delay: -464ms

Text #4
ID: 35 (0x23)
Format: RLE
Format/Info: Run-length encoding
Duration: 19mn 41s
Video delay: -464ms

Text #5
ID: 36 (0x24)
Format: RLE
Format/Info: Run-length encoding
Video delay: -464ms

Text #6
ID: 37 (0x25)
Format: RLE
Format/Info: Run-length encoding
Video delay: -464ms

Text #7
ID: 38 (0x26)
Format: RLE
Format/Info: Run-length encoding
Video delay: -464ms

Text #8
ID: 39 (0x27)
Format: RLE
Format/Info: Run-length encoding
Video delay: -464ms

Menu
Format: DVD-Video






















Поделиться:




реклама партнёра


Вернуться к началу
 Профиль Отправить личное сообщение  
 
   Похожие торренты   Автор   Торрент   Размер 
В этой теме нет новых непрочитанных сообщений. Флирт с сорокалетней / Flirting with Forty (Микаэл Саломон / Mikael Salomon) [2008г., комедия, мелодрама, драма, DVDRip] MVO

Alfredovich

2 | 1

1.45 ГБ

В этой теме нет новых непрочитанных сообщений. Декстер / Dexter [seasons 1-5, episode's 1-60] (Майкл Куэста, Тони Голдуин, Кейт Гордон, Маркос Сига, Тим Хантер) [Триллер, драма, криминал, детектив, 2006-2010] HDTVRip, Mvo

Dracon

2 | 3

24.22 ГБ

В этой теме нет новых непрочитанных сообщений. Эшби / Ashby (Тони МакНамара) [драма, мелодрама, комедия, 2015] WEB-DLRip, Dub [iTunes]

Dracon

751 | 57

1.46 ГБ

В этой теме нет новых непрочитанных сообщений. Эшби / Ashby (Тони МакНамара) [драма, мелодрама, комедия, 2015] WEB-DL 720p, Dub [iTunes]

Dracon

517 | 25

3.39 ГБ

В этой теме нет новых непрочитанных сообщений. Эшби / Ashby (Тони МакНамара) [драма, мелодрама, комедия, 2015] WEB-DL 1080p, Dub [iTunes]

Dracon

146 | 6

3.49 ГБ

В этой теме нет новых непрочитанных сообщений. Petite HD Porn 11: Flirt / Изящное HD Порно 11: Флирт (2016) WEB-DL

amadei

24 | 5

1.26 ГБ

В этой теме нет новых непрочитанных сообщений. Хочешь или нет? / Tu veux... ou tu veux pas? (Тони Маршалл) [Мелодрама, Комедия, 2014] WEB-DLRip, Dub [iTunes]

Dracon

165 | 8

1.37 ГБ


Начать новую тему Ответить на тему  [ 1 сообщение ] 




Для Мосгорсуда, Роскомнадзора и рекламодателей:: mosgorsud-torrent[собачка]yandex.ru