Торрент файл
скачать торрент магнет ссылка Добавлен: 08 янв 2012, 00:12
Размер: 7.37 ГБ
Сидеров: 7
Личеров: 5
Автор

СообщениеДобавлено: 08 янв 2012, 00:12 

Не в сети
Супермодератор
Аватара пользователя
Дата регистрации:
11 апр 2010, 18:10
Спасибо: 5798 / 7
Сообщения: 56779
Смертельная схватка

Перевод: Не требуется
Субтитры: Отсутствуют
Формат: DVD9, DVD Video, MPEG2, AC3
Страна: Россия
Режиссер: Александр Франскевич-Лайе
Жанр: Военный
Продолжительность: 02:50:45
Год выпуска: 2010

В ролях: Владимир Епифанцев, Анна Тараторкина, Александр Тютин, Александр Франскевич-Лайе, Дорота Делонг, Андрей Олефиренко, Виктор Васильев (II), Виталий Котовицкий, Сергей Белякович (II), Сергей Прокопич, Инна Франскевич, Евгений Никитин, Виталий Кравченко (II), Иван Мацкевич, Зоя Белохвостик, Александр Гарцуев, Олег Вебер, Сергей Лазарь

Описание: Западная Белоруссия, октябрь 1944 года. Немецкое командование пытается помешать советским войскам войти в Восточную Пруссию. Чтобы исключить утечку информации о своих планах, фашисты используют в работе новый код, который предстоит разгадать советским радистам. Именно такое задание получают генерал-майор Жаров и его подчинённые. Охранять разведчиков приказано группе капитана Белова, которая уже однажды спасла генерала от нападения немецкого десанта. Личная охрана — не просто прихоть генерала. Дело в том, что какой-то неизвестный снайпер много раз пытался убить Жарова, но всякий раз эти попытки удачно предотвращались. Об этом известно всем в штабе. Белов предлагает привлечь к охране Жарова Ольгу Ершову — свою невесту и очень опытного снайпера, чтобы она помогла как можно быстрее вычислить и нейтрализовать неуловимого убийцу. Генерал прислушивается к мнению Белова и соглашается с его идеей. Но сможет ли девушка оправдать такое высокое доверие? Справится ли она с трудной и архиважной задачей?

Рейтинг на КиноПоиск: 5.522 (46)

Видео: 720X576 (PAL 4:3), 25.000fps, MPEG-2 Video, ~9 000Kbps
Аудио: Русский 48.0KHz, AC-3, 2 ch, ~192Kbps [Оригинал]



Сценарий: Андрей Курейчик
Продюсер: Александр Любимов, Александр Франскевич-Лайе
Оператор: Николай Ивасив
Композитор: Владимир Сивицкий
Художник: Александр Холодцов
Премьера (мир): 8 мая 2010
Премьера (РФ): 9 мая 2010
Релиз на DVD: 31 августа 2010, «Флагман-Трейд»

General
Complete name: C:\загрузка\Smertelnaja_shvatka_[tfile.ru]\VIDEO_TS\VTS_01_2.VOB
Format: MPEG-PS
File size: 1 024 MiB
Duration: 25mn 40s
Overall bit rate: 5 577 Kbps

Video
ID: 224 (0xE0)
Format: MPEG Video
Format version: Version 2
Format profile: Main@Main
Format settings, Matrix: Default
Duration: 25mn 40s
Bit rate mode: Variable
Bit rate: 5 164 Kbps
Nominal bit rate: 9 000 Kbps
Width: 720 pixels
Height: 576 pixels
Display aspect ratio: 4/3
Frame rate: 25.000 fps
Standard: PAL
Colorimetry: 4:2:0
Scan type: Interlaced
Scan order: Top Field First
Bits/(Pixel*Frame): 0.498
Stream size: 948 MiB (93%)

Audio
ID: 128 (0x80)
Format: AC-3
Format/Info: Audio Coding 3
Duration: 25mn 40s
Bit rate mode: Constant
Bit rate: 192 Kbps
Channel(s): 2 channels
Channel positions: L R
Sampling rate: 48.0 KHz
Video delay: -240ms
Stream size: 35.3 MiB (3%)

Menu
Format: DVD-Video


















Поделиться:




реклама партнёра


Вернуться к началу
 Профиль Отправить личное сообщение  
 
   Похожие торренты   Автор   Торрент   Размер 
В этой теме нет новых непрочитанных сообщений. Не покидай меня [серия 1-4 из 4] (Александр Франскевич-Лайе) [мелодрама, военный, история, 2013] HDTV 1080i

Dracon

2 | 5

16.7 ГБ

В этой теме нет новых непрочитанных сообщений. Смертельная Схватка / Taking the Heat [боевик, триллер, 1993] DVDRip, Dvo [ОРТ]

salma3

2 | 0

907.29 МБ

В этой теме нет новых непрочитанных сообщений. Смертельная поездка / Смертельная прогулка / Mortelle randonnee [триллер, криминал, детектив, 1983] DVDRip, Avo

salma3

0 | 6

1.56 ГБ

В этой теме нет новых непрочитанных сообщений. Схватка / Ragada [Боевик, 2010] HDRip, Mvo [Red Media]

salma3

68 | 25

1.46 ГБ

В этой теме нет новых непрочитанных сообщений. Шуаны! / Chouans! [Исторический, приключения, военный, 1987] DVD9, Avo

salma3

5 | 4

11.57 ГБ

В этой теме нет новых непрочитанных сообщений. Единичка (Кирилл Белевич) [военный, драма, 2015] DVD9 [Лицензия]

Dracon

3 | 1

5.69 ГБ

В этой теме нет новых непрочитанных сообщений. Белая ночь [Серии 1-4 из 4] (Александр Якимчук) [Военный, 2015] HDTVRip

Dracon

31 | 4

2.15 ГБ


Начать новую тему Ответить на тему  [ 1 сообщение ] 




Для Мосгорсуда, Роскомнадзора и рекламодателей:: mosgorsud-torrent[собачка]yandex.ru