Торрент файл
скачать торрент магнет ссылка Добавлен: 08 янв 2012, 00:11
Размер: 6.46 ГБ
Сидеров: 0
Личеров: 6
Автор

СообщениеДобавлено: 08 янв 2012, 00:11 

Не в сети
Супермодератор
Аватара пользователя
Дата регистрации:
11 апр 2010, 18:10
Спасибо: 5799 / 7
Сообщения: 56779
Флэш.ка

Перевод: Не требуется
Субтитры: Русские
Формат: DVD9, DVD Video, MPEG2, AC3
Страна: Россия
Режиссер: Георгий Шенгелия
Жанр: Триллер, драма, криминал
Продолжительность: 01:45:37
Год выпуска: 2006

В ролях: Евгений Стычкин, Илья Шакунов, Андрей Ташков, Владимир Нисков, Юрий Осипов, Владислав Абашин, Валентина Ананьина, Александр Василевский, Ростислав Бершауэр, Георгий Клюев

Описание: Он живет в огромном мегаполисе и работает в солидной финансовой кампании. У него красавица жена, престижная машина, шикарный пентхаус. И не важно, что жена — начальник, да и работа давно не приносит удовольствия. Он просто привык. Он тайно строит дом у реки в далекой деревне, чтобы когда-нибудь отвезти туда жену и вместе вспомнить то время, когда в их жизни было то, что важнее денег: рассветы, друзья, байдарки, парное молоко…
Он еще не знает, что правила установлены, роли расписаны, ошибки — исключены… Однажды он приходит домой слишком рано. Мгновение — и жизнь круто меняется. Предательство жены — и уже нечего терять. Он кладет в карман флэшку с информацией стоимостью 320 миллионов долларов, от которой зависит спокойствие и жизнь Больших Людей. Он едет в дом над рекой. Там будут байдарки, задушевный разговор и лучший друг. Но все это продлится недолго…


Рейтинг на КиноПоиск: 4.259 (1 793)
Рейтинг на IMDb: 4.5/10

Видео: 720X576 (PAL 4:3), 25.000fps, MPEG-2 Video, ~8 440Kbps
Аудио#1: Русский 48.0KHz, AC-3, 6 ch, ~448Kbps
Аудио#2: Русский 48.0KHz, AC-3, 2 ch, ~192Kbps
Аудио#3: Русский 48.0KHz, DTS, 6 ch, ~755Kbps


Трейлер к фильму
Слоган «В игре должны быть правила...»


Сценарий Алексей Тимм
ПродюсерСергей Зернов
Оператор Алексей Найденов
Композитор Андрей Батурин
Сборы в России $151 000
Премьера (РФ) 23 ноября 2006, «Каропрокат»
Релиз на DVD 4 июня 2009, 26 ноября 2009, «Флагман-Трейд»

General
Complete name: C:\загрузка\Flesh_ka_[tfile.ru]\VIDEO_TS\VTS_02_2.VOB
Format: MPEG-PS
File size: 1 024 MiB
Duration: 25mn 34s
Overall bit rate: 5 598 Kbps

Video
ID: 224 (0xE0)
Format: MPEG Video
Format version: Version 2
Format profile: Main@Main
Format settings, Matrix: Default
Duration: 25mn 34s
Bit rate mode: Variable
Bit rate: 3 981 Kbps
Nominal bit rate: 8 440 Kbps
Width: 720 pixels
Height: 576 pixels
Display aspect ratio: 4/3
Frame rate: 25.000 fps
Standard: PAL
Colorimetry: 4:2:0
Scan type: Interlaced
Scan order: Top Field First
Bits/(Pixel*Frame): 0.384
Stream size: 728 MiB (71%)

Audio #1
ID: 128 (0x80)
Format: AC-3
Format/Info: Audio Coding 3
Duration: 25mn 34s
Bit rate mode: Constant
Bit rate: 448 Kbps
Channel(s): 6 channels
Channel positions: Front: L C R, Surround: L R, LFE
Sampling rate: 48.0 KHz
Video delay: -536ms
Stream size: 81.9 MiB (8%)

Audio #2
ID: 129 (0x81)
Format: AC-3
Format/Info: Audio Coding 3
Duration: 25mn 34s
Bit rate mode: Constant
Bit rate: 192 Kbps
Channel(s): 2 channels
Channel positions: L R
Sampling rate: 48.0 KHz
Video delay: -536ms
Stream size: 35.1 MiB (3%)

Audio #3
ID: 138 (0x8A)
Format: DTS
Format/Info: Digital Theater Systems
Duration: 25mn 34s
Bit rate mode: Constant
Bit rate: 755 Kbps
Channel(s): 6 channels
Channel positions: Front: L C R, Surround: L R, LFE
Sampling rate: 48.0 KHz
Resolution: 24 bits
Video delay: -536ms
Stream size: 138 MiB (13%)

Text
ID: 32 (0x20)
Format: RLE
Format/Info: Run-length encoding

Menu
Format: DVD-Video





















Поделиться:




реклама партнёра


Вернуться к началу
 Профиль Отправить личное сообщение  
 
   Похожие торренты   Автор   Торрент   Размер 
В этой теме нет новых непрочитанных сообщений. Радиоволна / Frequency [триллер, фантастика, драма, криминал, 2000] DVD9, Mvo+Sub

salma3

11 | 2

5.06 ГБ

В этой теме нет новых непрочитанных сообщений. Воскрешение / Resurrection [ужасы, триллер, драма, криминал, детектив, 1999] DVD9, Dvo+Avo+Sub

salma3

16 | 3

5.34 ГБ

В этой теме нет новых непрочитанных сообщений. Целуя девушек / Kiss the Girls [триллер, драма, криминал, детектив, 1997] DVD9, 2Mvo+Dvo+2Avo+Sub

salma3

26 | 11

7.83 ГБ

В этой теме нет новых непрочитанных сообщений. Кибер / Blackhat (Майкл Манн) [боевик, триллер, драма, криминал, детектив, 2015] DVD9, Dub+Sub [лицензия]

Dracon

0 | 0

6.83 ГБ

В этой теме нет новых непрочитанных сообщений. Need for Speed: Жажда скорости / Need for Speed [Боевик, триллер, драма, криминал, 2014] DVD9, Dub+Sub [Лицензия]

salma3

73 | 8

7.14 ГБ

В этой теме нет новых непрочитанных сообщений. Дочь / Aatma [ужасы, триллер, драма, криминал, 2006] SATRip, Mvo

salma3

4 | 10

1.04 ГБ

В этой теме нет новых непрочитанных сообщений. Братство / Tusenbroder / Aterkomsten [триллер, драма, криминал, 2006] DVDRip, Avo

salma3

0 | 2

1.49 ГБ


Начать новую тему Ответить на тему  [ 1 сообщение ] 




Для Мосгорсуда, Роскомнадзора и рекламодателей:: mosgorsud-torrent[собачка]yandex.ru