Торрент файл
скачать торрент магнет ссылка Добавлен: 08 янв 2012, 00:08
Размер: 6.05 ГБ
Сидеров: 0
Личеров: 4
Автор

СообщениеДобавлено: 08 янв 2012, 00:08 

Не в сети
Супермодератор
Аватара пользователя
Дата регистрации:
11 апр 2010, 18:10
Спасибо: 5802 / 7
Сообщения: 56779
Безответная любовь / Unrequited

Перевод: Профессиональный (двухголосый)
Субтитры: Русские
Формат: DVD9, DVD Video, MPEG2, AC3
Страна: США
Режиссер: Джейсон Эпперсон
Жанр: Триллер, драма
Продолжительность: 01:42:30
Год выпуска: 2010

В ролях: Майкл Уэлш, Дэвид Кит, Клер Кэри, Сара Хабель, Грегори Алан Уильямс, Джастин Бальдони, Бретт Райс, Брюс МакКиннон, Эми Хесс, Джеффри Дэй

Описание: Бен Джекобс, проблемный молодой человек, в связи со своим 18-летием вынужден покинуть приют, где он жил в течение последних нескольких месяцев. После возвращения обратно к своей матери Бен обнаруживает, что жизнь его подруги, Джессики Морган, не стоит на месте, и она сейчас встречается с парнем постарше из колледжа.
Отчаявшийся из-за любви Бен не в состоянии справиться с потерей Джессики, тяжелое прошлое накрывает его, когда он похищает ее в попытке добиться взаимных чувств. Выходящий из-под контроля и вступающий на очень опасный путь, Бен должен в конечном счете решить, отпустить ее, или удерживать Джессику, которую он безумно любит, даже если в итоге это уничтожит их обоих.


Рейтинг на КиноПоиск: 5.571 (249)
Рейтинг на IMDb: 4.0/10

Видео: 720X576 (PAL 4:3), 25.000fps, MPEG-2 Video, ~ 8 000Kbps
Аудио#1: Русский48.0KHz, AC-3, 6 ch, ~ 448Kbps [Профессиональный (двухголосый)]
Аудио#2: Английский 48.0KHz, AC-3, 6 ch, ~ 448Kbps [Оригинал]



Трейлер к фильму
Слоган: «На что ты готов, чтобы удержать любимую?»

General
Complete name: C:\загрузка\Unrequited_[tfile.ru]\VIDEO_TS\VTS_05_2.VOB
Format: MPEG-PS
File size: 1 024 MiB
Duration: 17mn 49s
Overall bit rate: 8 033 Kbps

Video
ID: 224 (0xE0)
Format: MPEG Video
Format version: Version 2
Format profile: Main@Main
Format settings, Matrix: Default
Duration: 17mn 48s
Bit rate mode: Variable
Bit rate: 6 818 Kbps
Nominal bit rate: 8 000 Kbps
Width: 720 pixels
Height: 576 pixels
Display aspect ratio: 4/3
Frame rate: 25.000 fps
Standard: PAL
Colorimetry: 4:2:0
Scan type: Interlaced
Scan order: Top Field First
Bits/(Pixel*Frame): 0.658
Stream size: 869 MiB (85%)

Audio #1
ID: 128 (0x80)
Format: AC-3
Format/Info: Audio Coding 3
Duration: 17mn 49s
Bit rate mode: Constant
Bit rate: 448 Kbps
Channel(s): 6 channels
Channel positions: Front: L C R, Surround: L R, LFE
Sampling rate: 48.0 KHz
Video delay: -666ms
Stream size: 57.1 MiB (6%)

Audio #2
ID: 129 (0x81)
Format: AC-3
Format/Info: Audio Coding 3
Duration: 17mn 49s
Bit rate mode: Constant
Bit rate: 448 Kbps
Channel(s): 6 channels
Channel positions: Front: L C R, Surround: L R, LFE
Sampling rate: 48.0 KHz
Video delay: -666ms
Stream size: 57.1 MiB (6%)

Text
ID: 32 (0x20)
Format: RLE
Format/Info: Run-length encoding
Duration: 17mn 48s
Video delay: -666ms

Menu
Format: DVD-Video

Сценарий: Джеффри Дэй, Томас Локридж
Продюсер: Кэмрон Кэрриэр, Р. Дэвид Слоун, Джеффри Дэй
Оператор: С. Дуглас Смит
Композитор: Роб Потторф
Художник: Карла Шивенер
Монтаж: Брок Смит
Премьера (мир): 8 июня 2010
Премьера (РФ): 26 августа 2010, «Премиум Фильм»
Релиз на DVD: 30 сентября 2010, «CP-DIGITAL»

Производство:
1. Group Entertainment, The
2. Lucky Day Studios





















Поделиться:




реклама партнёра


Вернуться к началу
 Профиль Отправить личное сообщение  
 
   Похожие торренты   Автор   Торрент   Размер 
В этой теме нет новых непрочитанных сообщений. Призвание / The Calling (Джейсон Стоун) [триллер, криминал, детектив, 2014] DVD9, Mvo+Sub [Лицензия]

Dracon

15 | 7

6.89 ГБ

В этой теме нет новых непрочитанных сообщений. Kjetil By - Unrequited Love [2008, Melodic Rock,AOR, MP3]

PriZraK

0 | 1

77.44 МБ

В этой теме нет новых непрочитанных сообщений. Все в порядке, это любовь / Просто это любовь / Ничего страшного, это любовь / It's Okay It's Love [01-16 из 16](Ким Кю Тхэ)[2014, мелодрама, романтика, комедия, психология, HDTVRip 720р]

Nickolas3435

9 | 5

18.51 ГБ

В этой теме нет новых непрочитанных сообщений. Любовь по рецепту и без / Любовь, секс и химия / Better Living Through Chemistry [комедия, драма, 2014] DVD5, Dub [Лицензия]

Dracon

26 | 2

4.17 ГБ

В этой теме нет новых непрочитанных сообщений. Джейсон X / Jason X [ужасы, фантастика, триллер, 2001] WEB-DL 720p, Mvo

salma3

0 | 0

2.87 ГБ

В этой теме нет новых непрочитанных сообщений. Любовь по рецепту и без / Любовь, секс и химия / Better Living Through Chemistry [комедия, драма, 2014] HDRip, dub [Чистый звук]

Dracon

114 | 3

1.45 ГБ

В этой теме нет новых непрочитанных сообщений. Джейсон Борн / Jason Bourne [боевик, триллер, 2016] HDTVRip, avo

marya111

70 | 2

749.59 МБ


Начать новую тему Ответить на тему  [ 1 сообщение ] 




Для Мосгорсуда, Роскомнадзора и рекламодателей:: mosgorsud-torrent[собачка]yandex.ru