Торрент файл
скачать торрент магнет ссылка Добавлен: 07 янв 2012, 19:32
Размер: 5.33 ГБ
Сидеров: 0
Личеров: 5
Автор

СообщениеДобавлено: 07 янв 2012, 19:32 

Не в сети
Супермодератор
Аватара пользователя
Дата регистрации:
11 апр 2010, 18:10
Спасибо: 5801 / 7
Сообщения: 56779
Стерва / Saving Silverman

Перевод: Профессиональный (многоголосый, закадровый)
Субтитры: Английские, русские, неметские, хинди, польские, чешские, ирландские, иврит, хорватские, болгарские,турецкие, датские, шведские, финские, словенские, норвежские, арабские
Формат: DVD9, DVD Video, MPEG2, AC3
Страна: США, Австралия
Режиссер: Дэннис Дуган
Жанр: Комедия, мелодрама, криминал
Продолжительность: 01:32:27
Год выпуска: 2001

В ролях: Стив Зан, Джек Блэк, Джейсон Биггз, Аманда Пит, Аманда Детмер, Р. Ли Эрми, Нил Даймонд, Кайл Гэсс, Норман Армор, Колин Фу

Описание: Друзья помогут. Даже когда их об этом не просят. Когда Джей Ди и Уэйн обнаруживают, что их закадычный друг Даррен Сильверман собрался совершить самую ужасную ошибку в своей жизни — пойти к алтарю со стервозной красоткой Джудит, они тут же замышляют заговор спасения своего незадачливого приятеля из лап злой и амбициозной девицы.
К несчастью, они сами не могут похвастаться умением все делать правильно и без осечек, поэтому не находят ничего лучшего, как сыграть в Джеймсов Бондов и похитить Джудит. А в ее отсутствие свести Даррена с его бывшей школьной любовью, милой и доброй Сэнди.
Безумный план. Но, может быть, именно сумасшедшие идеи и должны срабатывать в таких случаях? И вот, весьма рискованная операция «Спасти от невесты» начинается!..


Рейтинг на КиноПоиск: 6.361 (1 241)
Рейтинг наIMDb: 5.6/10
Рейтинг MPAA: PG-13

Видео: 720X576 (PAL 16:9), 25.000fps, MPEG-2 Video, ~9 800Kbps avg
Аудио#1: Английский 48.0KHz, AC-3, 6 ch, ~448Kbps avg [Оригинал][/field]
Аудио#2: Русский 48.0KHz, AC-3, 6 ch, ~448Kbps avg [Профессиональный (многоголосый, закадровый)]
Аудио#3: Английский 48.0KHz, AC-3, 2 ch, ~192Kbps avg [Коментарий к фильму]



Трейлер к фильму
Слоган:«Друзья всегда помогут. Даже когда их об этом не просят.»

* В рекламном ролике фильма герою Стива Зана пририсовали цифровым способом голубые трусы, поскольку Американской киноассоциации (MPAA) этот эпизод показался слишком откровенным.
* Джей Ди (Джек Блэк) сравнивает Джудит (Аманда Пит) с Ганнибалом Лектором. Любопытно, что «Стерва» и «Ганнибал» были выпущены в США в один и тот же день.
* Режиссер фильма Деннис Дуган появился в эпизоде-камео, сыграв футбольного судью.

General
Complete name: C:\загрузка\Saving_Silverman_[tfile.ru]\VIDEO_TS\VTS_01_2.VOB
Format: MPEG-PS
File size: 1 024 MiB
Duration: 19mn 44s
Overall bit rate: 7 252 Kbps

Video
ID: 224 (0xE0)
Format: MPEG Video
Format version: Version 2
Format profile: Main@Main
Format settings, Matrix: Default
Duration: 19mn 44s
Bit rate mode: Variable
Bit rate: 5 877 Kbps
Nominal bit rate: 9 800 Kbps
Width: 720 pixels
Height: 576 pixels
Display aspect ratio: 16/9
Frame rate: 25.000 fps
Standard: PAL
Colorimetry: 4:2:0
Scan type: Interlaced
Scan order: Top Field First
Bits/(Pixel*Frame): 0.567
Stream size: 830 MiB (81%)

Audio #1
ID: 128 (0x80)
Format: AC-3
Format/Info: Audio Coding 3
Duration: 19mn 44s
Bit rate mode: Constant
Bit rate: 448 Kbps
Channel(s): 6 channels
Channel positions: Front: L C R, Surround: L R, LFE
Sampling rate: 48.0 KHz
Video delay: -208ms
Stream size: 63.3 MiB (6%)

Audio #2
ID: 129 (0x81)
Format: AC-3
Format/Info: Audio Coding 3
Duration: 19mn 44s
Bit rate mode: Constant
Bit rate: 448 Kbps
Channel(s): 6 channels
Channel positions: Front: L C R, Surround: L R, LFE
Sampling rate: 48.0 KHz
Video delay: -208ms
Stream size: 63.3 MiB (6%)

Audio #3
ID: 130 (0x82)
Format: AC-3
Format/Info: Audio Coding 3
Format profile: Dolby Digital
Duration: 19mn 44s
Bit rate mode: Constant
Bit rate: 192 Kbps
Channel(s): 2 channels
Channel positions: L R
Sampling rate: 48.0 KHz
Video delay: -208ms
Stream size: 27.1 MiB (3%)

Text #1
ID: 32 (0x20)
Format: RLE
Format/Info: Run-length encoding

Text #2
ID: 33 (0x21)
Format: RLE
Format/Info: Run-length encoding

Text #3
ID: 34 (0x22)
Format: RLE
Format/Info: Run-length encoding
Duration: 19mn 41s
Video delay: -208ms

Text #4
ID: 35 (0x23)
Format: RLE
Format/Info: Run-length encoding

Text #5
ID: 36 (0x24)
Format: RLE
Format/Info: Run-length encoding

Text #6
ID: 37 (0x25)
Format: RLE
Format/Info: Run-length encoding

Text #7
ID: 38 (0x26)
Format: RLE
Format/Info: Run-length encoding

Text #8
ID: 39 (0x27)
Format: RLE
Format/Info: Run-length encoding
Duration: 19mn 41s
Video delay: -208ms

Text #9
ID: 40 (0x2
Format: RLE
Format/Info: Run-length encoding
Duration: 19mn 41s
Video delay: -208ms

Text #10
ID: 41 (0x29)
Format: RLE
Format/Info: Run-length encoding

Text #11
ID: 42 (0x2A)
Format: RLE
Format/Info: Run-length encoding

Text #12
ID: 43 (0x2B)
Format: RLE
Format/Info: Run-length encoding

Text #13
ID: 44 (0x2C)
Format: RLE
Format/Info: Run-length encoding

Text #14
ID: 45 (0x2D)
Format: RLE
Format/Info: Run-length encoding
Duration: 19mn 41s
Video delay: -208ms

Text #15
ID: 46 (0x2E)
Format: RLE
Format/Info: Run-length encoding

Text #16
ID: 47 (0x2F)
Format: RLE
Format/Info: Run-length encoding

Text #17
ID: 48 (0x30)
Format: RLE
Format/Info: Run-length encoding
Duration: 19mn 41s
Video delay: -208ms

Text #18
ID: 49 (0x31)
Format: RLE
Format/Info: Run-length encoding

Text #19
ID: 50 (0x32)
Format: RLE
Format/Info: Run-length encoding

Menu
Format: DVD-Video

Сценарий: Хэнк Нелкен, Грег Де Пол
Продюсер: Брюс Берман, Уоррен Карр, Берни Голдманн, ...
Оператор: Артур Альберт
Композитор: Майкл Симпсон
Художник: Майкл С. Болтон, Мелисса То, Джеймс Стюарт, ...
Монтаж: Дебра Нил Фишер
Бюджет: $22 000 000
Маркетинг: $18 000 000
Сборы в США: $19 402 030
Сборы в мире: + $6 684 676 = $26 086 706
Зрители: США3.6 млн., Германия279.4 тыс., Испания241.4 тыс.
Премьера (мир): 7 февраля 2001
Премьера (РФ): 18 апреля 2002, «Каскад»



























Всего на 17-ти языках















Поделиться:




реклама партнёра


Вернуться к началу
 Профиль Отправить личное сообщение  
 
   Похожие торренты   Автор   Торрент   Размер 
В этой теме нет новых непрочитанных сообщений. Трудный Ребенок: Трилогия / Problem Child: Trilogy (Дэннис Дуган,Брайан Левант,Грег Биман) [1990-1995, Комедия, Семейный, DVDRip]

marya111

0 | 0

4.27 ГБ

В этой теме нет новых непрочитанных сообщений. Сердцеедки / Heartbreakers [комедия, мелодрама, криминал, 2001] BDRip 1080p, Dub+Mvo+Avo+Sub

salma3

40 | 5

14.89 ГБ

В этой теме нет новых непрочитанных сообщений. Спасение Бога / Saving God [Драма, криминал, 2008] BDRip 1080p, Mvo

salma3

9 | 4

7.47 ГБ

В этой теме нет новых непрочитанных сообщений. Спасти мистера Ву / Jie jiu Wu xian sheng / Saving Mr. Wu [боевик, триллер, драма, криминал, 2015] BDRip, Dvo

salma3

81 | 6

2.18 ГБ

В этой теме нет новых непрочитанных сообщений. Констебль / The Constable (Дэннис Ло / Dennis Law) [2013г., боевик, криминал, HDRip] dvo

Alfredovich

50 | 2

1.39 ГБ

В этой теме нет новых непрочитанных сообщений. Смертельный шаг / Fatal Move / Duo shuai (Дэннис Ло / Dennis Law) [2008г., Гонконг, боевик, криминал, HDRip] AVO

Alfredovich

5 | 2

749.21 МБ

В этой теме нет новых непрочитанных сообщений. Спасти Санту / Saving Santa [мультфильм, мюзикл, комедия, семейный, 2013] DVD5, Dub [Лицензия]

Dracon

6 | 4

4.13 ГБ


Начать новую тему Ответить на тему  [ 1 сообщение ] 




Для Мосгорсуда, Роскомнадзора и рекламодателей:: mosgorsud-torrent[собачка]yandex.ru