Торрент файл
скачать торрент магнет ссылка Добавлен: 07 янв 2012, 19:30
Размер: 7.25 ГБ
Сидеров: 0
Личеров: 3
Автор

СообщениеДобавлено: 07 янв 2012, 19:30 

Не в сети
Супермодератор
Аватара пользователя
Дата регистрации:
11 апр 2010, 18:10
Спасибо: 5802 / 7
Сообщения: 56779
Как потерять друзей и заставить всех тебя ненавидеть / How to Lose Friends & Alienate People

Перевод: Профессиональный (полное дублирование)
Субтитры: Отсутствуют
Формат: DVD9, DVD Video, MPEG2, AC3
Страна: Великобритания
Режиссер: Роберт Б. Вайде
Жанр: Комедия, мелодрама
Продолжительность: 01:46:39
Год выпуска: 2008

В ролях: Келлан Паннелл, Джанетт Скотт, Саймон Пегг, Меган Фокс, Джиллиан Андерсон, Kelly Jo Charge, Кристиан Смит, Кэтерин Паркинсон, Фелисити Монтегю, Тэнди Ньютон ...

Роли дублировали: Пётр Иващенко, Ольга Зверева, Ольга Зубкова, Владимир Антоник, Любовь Германова

Описание: Сидней Янг — разочарованный нищий интеллектуал. Он глубоко презирает мир шика и гламура, потому что знает, что никогда не станет его частью, и богатство ему не грозит. Его альтернативный журнал «Мир без понтов» высмеивает чванливых звезд, одержимых собственной важностью.
И вот, чтобы позабавиться над этим чудаком, издатель самого крутого глянцевого журнала «Гламур» предлагает Сиднею кресло журналиста в отдел сенсаций. Все замерли в радостном предвкушении великой хохмы. Но к удивлению местных снобов, Сидней соглашается на предложение, а его эксцентричные выходки сразу приносят ему славу и успех…


Рейтинг на КиноПоиск: 6.807 (9 811)
Рейтинг на IMDb: 6.7/10
Рейтинг MPAA: R

Видео: 720X576 (PAL 16:9), 25.000fps, MPEG-2 Video, ~6 500Kbps
Аудио#1: Русский 48.0KHz, AC-3, 6 ch, ~384Kbps [Профессиональный (полное дублирование)]
Аудио#2: Английский 48.0KHz, AC-3, 6 ch, ~384Kbps [Оригинал]
Аудио#3: Русский 48.0KHz, DTS, 6 ch, ~755Kbps [Профессиональный (полное дублирование)]



Трейлер к фильму
Слоган: «Кому я должен, всем прощаю»

* В фильме можно заметить плакаты фильмов «Поезд на Юму» (2007) и «Час Пик 3»
* В одном из моментов Саймон Пегг путает фамилию своей домовладелицы и называет ее «миссис Лебовски». Это можно считать своеобразной отсылкой к Джеффу Бриджесу, который сыграл в фильме братьев Коэнов «Большой Лебовски».
* Тоби Янга, по книге которого снят фильм, выставили со съемочной площадки, так как он раздражал актеров и пытался говорить режиссеру, как надо снимать.
* Когда Сидни приходит на костюмированную вечеринку в костюме графа Дракулы его называют Белой Лугоши. Это является ссылкой к фильму «Дракула»(1931), в котором роль графа исполнил Бела Лугоши. Этот же образ и стал самым узнаваемым воплощением Дракулы на экране.
* Библиотечная карточка Сидни из Глаучестера. Саймон Пегг родился в Глаучестере.
* Саймон Пегг был утвержден на роль Сидни еще в 2004 году в одноименной сценической постановке, но не смог в ней участвовать, т.к. в это время Саймон снимался в «Зомби по имени Шон».
* Мэддокс пьет коктейль «Белый русский» это является отсылкой к Джеффу Бриджесу и фильму с его участием «Большой Лебовски».
* Сцена, когда Сидни проходит мимо упавшей на пол Элизабет Мэддокс основана на действительно произошедшем инциденте с участием Анны Винтор и работника журнала «Vanity Fair».

General
Complete name: C:\загрузка\How_to_Lose_Friends_[tfile.ru]\VIDEO_TS\VTS_04_3.VOB
Format: MPEG-PS
File size: 1 024 MiB
Duration: 20mn 3s
Overall bit rate: 7 136 Kbps

Video
ID: 224 (0xE0)
Format: MPEG Video
Format version: Version 2
Format profile: Main@Main
Format settings, Matrix: Default
Duration: 20mn 3s
Bit rate mode: Variable
Bit rate: 5 330 Kbps
Nominal bit rate: 6 500 Kbps
Width: 720 pixels
Height: 576 pixels
Display aspect ratio: 16/9
Frame rate: 25.000 fps
Standard: PAL
Colorimetry: 4:2:0
Scan type: Interlaced
Scan order: Top Field First
Bits/(Pixel*Frame): 0.514
Stream size: 765 MiB (75%)

Audio #1
ID: 128 (0x80)
Format: AC-3
Format/Info: Audio Coding 3
Duration: 20mn 3s
Bit rate mode: Constant
Bit rate: 384 Kbps
Channel(s): 6 channels
Channel positions: Front: L C R, Surround: L R, LFE
Sampling rate: 48.0 KHz
Video delay: -667ms
Stream size: 55.1 MiB (5%)

Audio #2
ID: 130 (0x82)
Format: AC-3
Format/Info: Audio Coding 3
Duration: 20mn 3s
Bit rate mode: Constant
Bit rate: 384 Kbps
Channel(s): 6 channels
Channel positions: Front: L C R, Surround: L R, LFE
Sampling rate: 48.0 KHz
Video delay: -667ms
Stream size: 55.1 MiB (5%)

Audio #3
ID: 137 (0x89)
Format: DTS
Format/Info: Digital Theater Systems
Duration: 20mn 3s
Bit rate mode: Constant
Bit rate: 755 Kbps
Channel(s): 6 channels
Channel positions: Front: L C R, Surround: L R, LFE
Sampling rate: 48.0 KHz
Resolution: 24 bits
Video delay: -667ms
Stream size: 108 MiB (11%)

Menu
Format: DVD-Video

Сценарий: Питер Строхан, Тоби Янг
Продюсер: Лори Борг, Аллан Земан, Кэрри Фикс, ...
Оператор: Оливер Стейплтон
Композитор: Дэвид Арнольд
Художник: Джон Бирд, Энни Хардинж, Рэй Чан, ...
Монтаж: Дэвид Фриман
Бюджет: $28 000 000
Сборы в США: $2 778 752
Сборы в мире: + $16 362 530 = $19 141 282
Сборы в России: $2 927 500
Зрители: Великобритания791.9 тыс., Россия484.6 тыс., США386.9 тыс.
Премьера (мир): 3 октября 2008
Премьера (РФ): 16 октября 2008, «Люксор»
Релиз на DVD: 6 августа 2009, «Флагман-Трейд», ...






















Поделиться:




реклама партнёра


Вернуться к началу
 Профиль Отправить личное сообщение  
 
   Похожие торренты   Автор   Торрент   Размер 
В этой теме нет новых непрочитанных сообщений. Положись на друзей / Friends with Money [драма, мелодрама, комедия, 2006] DVDRip, Mvo

salma3

5 | 2

1.46 ГБ

В этой теме нет новых непрочитанных сообщений. Убей своих друзей / Kill Your Friends [триллер, комедия, криминал, 2015] HDRip, Dvo

salma3

105 | 6

1.45 ГБ

В этой теме нет новых непрочитанных сообщений. Приключения Чака и друзей / The Adventures of Chuck & Friends / 1-52 из 52 [семейный, 2010] DVDRip, Dub

salma3

17 | 4

7.67 ГБ

В этой теме нет новых непрочитанных сообщений. Друзья друзей [Комедия, 2013] DVD9 [Лицензия]

Dracon

10 | 3

4.81 ГБ

В этой теме нет новых непрочитанных сообщений. Мама и папа трахают моих друзей 17 / Mom & Dad Are Fucking My Friends 17 (2015) WEBRip 720p

Dievas

16 | 3

3.64 ГБ

В этой теме нет новых непрочитанных сообщений. Сурово попала на друзей сынишки / Ariella Ferrera / My Son's Best Friends [All Sex, Oral, BigTits, Anal, DP, 2016] SiteRip

salma3

14 | 0

335.33 МБ

В этой теме нет новых непрочитанных сообщений. Mom & Dad Are Fucking My Friends 15 / Мама И Папа Трахают Моих Друзей 15 (K.K. / Doghouse Digital) (Adele Sunshine, Jenny Simons, Kattie Gold, Klarisa Leone, Lenny Elleny...) [2014 г., 18+ Teens, All Sex,MILF, Threesomes, WEB-DL 408p]

friizze

5 | 2

1.57 ГБ


Начать новую тему Ответить на тему  [ 1 сообщение ] 




Для Мосгорсуда, Роскомнадзора и рекламодателей:: mosgorsud-torrent[собачка]yandex.ru