Торрент файл
скачать торрент магнет ссылка Добавлен: 07 янв 2012, 19:29
Размер: 7.07 ГБ
Сидеров: 4
Личеров: 6
Автор

СообщениеДобавлено: 07 янв 2012, 19:29 

Не в сети
Супермодератор
Аватара пользователя
Дата регистрации:
11 апр 2010, 18:10
Спасибо: 5904 / 7
Сообщения: 56778
Воздушные приключения / Those Magnificent Men in Their Flying Machines or How I Flew from London to Paris in 25 hours 11 minutes

Перевод: Профессиональный (полное дублирование)
Субтитры: Русские, английские
Формат: DVD9, DVD Video, MPEG2, AC3
Страна: Великобритания
Режиссер: Кен Эннакин
Жанр: Комедия, приключения
Продолжительность: 02:17:51
Год выпуска: 1965

В ролях: Стюарт Уитман, Сара Майлз, Джеймс Фокс, Альберто Сорди, Роберт Морли, Герт Фрёбе, Жан-Пьер Кассель, Ирина Демик, Эрик Сайкс, Ред Скелтон ...

Роли дублировали: Феликс Яворский, Надежда Румянцева, Вячеслав Тихонов, Артем Карапетян, Сергей Цейц ...

Описание: *Это фильм, над которым нужно смеяться в два этапа. Первый этап: смех над названием. Дело в том, что он звучит так: «Эти удивительные мужчины на своих летающих машинах, или Как я летел из Лондона в Париж 25 часов и 11 минут». Вы слышали что-нибудь подобное? Считайте, что услышали.
*Второй этап: безостановочный хохот во время просмотра. Потому что это не какая-нибудь комедия, а фантастически смешная история грандиозного авиашоу с участием главных комиков Европы шестидесятых.
*Англия, 1910 год, начало эры авиации. Лорд Ронсли объявляет о проведении первых международных авиагонок по маршруту: Лондон-Париж. Влюбленный в его дочь Ричард Мэйс должен доказать превосходство англичан не только на морях, но и в воздухе. Однако, летчики со всего света — жуликоватый английский лорд, индюкоподобный немецкий полковник, любвеобильный француз, ковбойского вида американец и многодетный итальянский граф — все они на своих неуклюжих аэропланах так же готовы побороться за главный приз — 10000 фунтов стерлингов...


Рейтинг на КиноПоиск: 7.788 (176)
Рейтинг на IMDb: 6.8/10

Видео: 720х480 ( 16:9), 23,976fps, MPEG-2 Video, ~9 800Kbps avg
Аудио#1: Русский 48.0KHz, AC-3, 2 ch, ~256Kbps avg [Профессиональный (полное, дублирование)]
Аудио#2: Русский 48.0KHz, AC-3, 2 ch, ~192Kbps avg [Авторский (одноголосый, А.Михалев)]
Аудио#3: Русский 48.0KHz, AC-3, 2 ch, ~192Kbps avg [Авторский (одноголосый, А.Гаврилов)]
Аудио#4: Русский 48.0KHz, AC-3, 2 ch, ~192Kbps abg [Авторский (одноголосый, Л.Володарский)]
Аудио#5: Русский 48.0KHz, AC-3, 2 ch, ~192Kbps avg [Профессиональный (многоголосый,закадровый)]
Аудио#6: Английский 48.0, AC-3, 2 ch, ~192Kbps avg [Оригинал]



Трейлер к фильму
Слоган: «or How I Flew from London to Paris in 25 hours 11 minutes»

General
Complete name: C:\загрузка\Those_Magnificent_Men_[tfile.ru]\VIDEO_TS\VTS_06_2.VOB
Format: MPEG-PS
File size: 1 024 MiB
Duration: 20mn 33s
Overall bit rate: 6 966 Kbps

Video
ID: 224 (0xE0)
Format: MPEG Video
Format version: Version 2
Format profile: Main@Main
Format settings, Matrix: Default
Duration: 20mn 32s
Bit rate mode: Variable
Bit rate: 5 474 Kbps
Nominal bit rate: 9 800 Kbps
Width: 720 pixels
Height: 480 pixels
Display aspect ratio: 16/9
Frame rate: 23.976 fps
Standard: Component
Colorimetry: 4:2:0
Scan type: Progressive
Scan order: 2:3 Pulldown
Bits/(Pixel*Frame): 0.661
Stream size: 804 MiB (79%)

Audio #1
ID: 128 (0x80)
Format: AC-3
Format/Info: Audio Coding 3
Duration: 20mn 33s
Bit rate mode: Constant
Bit rate: 256 Kbps
Channel(s): 2 channels
Channel positions: L R
Sampling rate: 48.0 KHz
Video delay: -532ms
Stream size: 37.6 MiB (4%)

Audio #2
ID: 129 (0x81)
Format: AC-3
Format/Info: Audio Coding 3
Duration: 20mn 33s
Bit rate mode: Constant
Bit rate: 192 Kbps
Channel(s): 2 channels
Channel positions: L R
Sampling rate: 48.0 KHz
Video delay: -532ms
Stream size: 28.2 MiB (3%)

Audio #3
ID: 130 (0x82)
Format: AC-3
Format/Info: Audio Coding 3
Duration: 20mn 33s
Bit rate mode: Constant
Bit rate: 192 Kbps
Channel(s): 2 channels
Channel positions: L R
Sampling rate: 48.0 KHz
Video delay: -532ms
Stream size: 28.2 MiB (3%)

Audio #4
ID: 131 (0x83)
Format: AC-3
Format/Info: Audio Coding 3
Duration: 20mn 33s
Bit rate mode: Constant
Bit rate: 192 Kbps
Channel(s): 2 channels
Channel positions: L R
Sampling rate: 48.0 KHz
Video delay: -532ms
Stream size: 28.2 MiB (3%)

Audio #5
ID: 132 (0x84)
Format: AC-3
Format/Info: Audio Coding 3
Duration: 20mn 33s
Bit rate mode: Constant
Bit rate: 192 Kbps
Channel(s): 2 channels
Channel positions: L R
Sampling rate: 48.0 KHz
Video delay: -532ms
Stream size: 28.2 MiB (3%)

Audio #6
ID: 133 (0x85)
Format: AC-3
Format/Info: Audio Coding 3
Duration: 20mn 33s
Bit rate mode: Constant
Bit rate: 192 Kbps
Channel(s): 2 channels
Channel positions: L R
Sampling rate: 48.0 KHz
Video delay: -532ms
Stream size: 28.2 MiB (3%)

Text #1
ID: 224 (0xE0)-DVD-1
Format: EIA-608
MuxingMode: MPEG Video / DVD-Video
MuxingMode_MoreInfo: Muxed in Video #1

Text #2
ID: 32 (0x20)
Format: RLE
Format/Info: Run-length encoding

Text #3
ID: 33 (0x21)
Format: RLE
Format/Info: Run-length encoding

Menu
Format: DVD-Video

Оскар, 1966 год:
Номинации (1):
* Лучший оригинальный сценарий
Золотой глобус, 1966 год
Номинации (3):
* Лучшая мужская роль (комедия или мюзикл) (Альберто Сорди)
* Лучший фильм (комедия или мюзикл)
* Самый многообещающий новичок среди мужчин (Джеймс Фокс)
Британская академия, 1966 год
Победитель (1):
* Лучшая работа костюмера (цветные фильмы)
Номинации (2):
* Лучшая работа оператора (цветные фильмы)
* Лучшая работа художника (цветные фильмы)

Сценарий: Кен Эннакин, Джек Дейвис
Продюсер: Джек Дейвис, Стэн Маргулис
Оператор: Кристофер Чаллис
Композитор: Рон Гудвин
Художник: Томас Н. Морахэн, Osbert Lancaster
Монтаж: Энн В. Коутс, Гордон Стоун
Бюджет: $5 600 000
Премьера (мир): 3 июня 1965
Релиз на DVD: 17 декабря 2009, «Двадцатый Век Фокс СНГ», ...



























Поделиться:




реклама партнёра


Вернуться к началу
 Профиль Отправить личное сообщение  
 
   Похожие торренты   Автор   Торрент   Размер 
В этой теме нет новых непрочитанных сообщений. The Magnificent – The Magnificent [Japanese Edition] [2011, Melodic Rock, AOR, MP3]

PriZraK

0 | 1

142.51 МБ

В этой теме нет новых непрочитанных сообщений. Flying Colors - Flying Colors (Ex-Deep Purple,Dream Theater,Spock's Beard) [2012, Progressive Rock, MP3]

PriZraK

1 | 3

136.63 МБ

В этой теме нет новых непрочитанных сообщений. Маскарад / Masquerade [Комедия, криминал, приключения, экранизация, 1965] DVDRip, Dvo [НТВ+]

salma3

67 | 9

1.37 ГБ

В этой теме нет новых непрочитанных сообщений. Джентльмен из Кокоди / Le gentleman de Cocody [Приключения, комедия, боевик, 1965] DVDRip-AVC, Mvo

salma3

80 | 9

1.91 ГБ

В этой теме нет новых непрочитанных сообщений. Великолепная семерка / The Magnificent Seven (боевик, приключения, вестерн, 2016) BDRip-AVC | A

marya111

132 | 23

744.73 МБ

В этой теме нет новых непрочитанных сообщений. Великолепная семерка / The Magnificent Seven [Боевик, приключения, вестерн, 2016] DVD5, Dub

salma3

109 | 69

4.37 ГБ

В этой теме нет новых непрочитанных сообщений. Великолепная семерка / The Magnificent Seven [боевик, приключения, вестерн, 2016] BDRip, Avo

salma3

4072 | 170

1.46 ГБ


Начать новую тему Ответить на тему  [ 1 сообщение ] 




Для Мосгорсуда, Роскомнадзора и рекламодателей:: mosgorsud-torrent[собачка]yandex.ru