Торрент файл
скачать торрент магнет ссылка Добавлен: 07 янв 2012, 19:27
Размер: 6.23 ГБ
Сидеров: 3
Личеров: 4
Автор

СообщениеДобавлено: 07 янв 2012, 19:27 

Не в сети
Супермодератор
Аватара пользователя
Дата регистрации:
11 апр 2010, 18:10
Спасибо: 5801 / 7
Сообщения: 56779
Милашка / The Sweetest Thing

Перевод: Профессиональный (полное дублирование)
Субтитры: Английские, русские, чешские, хинди, арабские, болгарские, хорватские, датские, финские, греческие, иврит, венгерские, исландские, норвежские, польские, румынские, словенские, шведские, турецкие
Формат: DVD9, DVD Video, MPEG2, AC3
Страна: США
Режиссер: Роджер Камбл
Жанр: Комедия, мелодрама
Продолжительность: 01:26:58
Год выпуска: 2002

В ролях: Кэмерон Диаз, Кристина Эпплгейт, Сэльма Блэр, Томас Джейн, Фрэнк Грилло, Джейсон Бейтман, Эдди МакКлинток, Лиллиэн Адамс, Джонни Месснер, Сибил Темчен ...

Роли дублировали: Евгения Игумнова, Елена Шульман, Анатолий Петров, Евгений Дятлов, Иван Паршин ...

Описание: Сексуальная блондинка, тусовщица и завсегдатай ночных клубов Кристина Уолтерс в один прекрасный день решает, что ей не мешало бы просветиться, т. е. научиться хорошим манерам и познать науку цивилизованного обольщения мужчин.
И кандидатура нашлась: она повстречала «Мистера Идеал» который разбил ее сердце и… тут же исчез. Но агрессивная красотка не растерялась: она берет в охапку свою лучшую подругу и отправляется на поиски парня своей мечты.
Во время этого дорожного путешествия Кристина многое узнает о себе и о своей жизни.


Рейтинг на КиноПоиск: 6.240 (2 388)
Рейтинг на IMDb: 4.7/10
Рейтинг MPAA: R

Видео: 720X576 (PAL 16:9), 25.000fps, MPEG-2 Video, ~ 9 800Kbps avg
Аудио#1: Английский 48.0KHz, AC-3, 6 ch, ~ 448Kbps avg [Оригинал][/field]
Аудио#2: Русский 48.0KHz, AC-3, 6 ch, ~ 384Kbps avg [Профессиональный (полное дублирование)]
Аудио#3: Венгерский 48.0KHz, AC-3, 6 ch, ~ 384Kbps avg
Аудио#4: Чешский 48.0KHz, AC-3, 6 ch, ~ 384Kbps avg
Аудио#5: Английский 48.0KHz, AC-3, 2 ch, ~ 192Kbps avg [Коментарий к фильму]



Трейлер к фильму
Слоган: «They're looking for a few good men.»

General
Complete name: C:\загрузка\The_Sweetest_Thing_[tfile.ru]\VIDEO_TS\VTS_09_3.VOB
Format: MPEG-PS
File size: 1 024 MiB
Duration: 19mn 3s
Overall bit rate: 7 510 Kbps

Video
ID: 224 (0xE0)
Format: MPEG Video
Format version: Version 2
Format profile: Main@Main
Format settings, Matrix: Default
Duration: 19mn 3s
Bit rate mode: Variable
Bit rate: 5 420 Kbps
Nominal bit rate: 9 800 Kbps
Width: 720 pixels
Height: 576 pixels
Display aspect ratio: 16/9
Frame rate: 25.000 fps
Standard: PAL
Colorimetry: 4:2:0
Scan type: Interlaced
Scan order: Top Field First
Bits/(Pixel*Frame): 0.523
Stream size: 739 MiB (72%)

Audio #1
ID: 128 (0x80)
Format: AC-3
Format/Info: Audio Coding 3
Duration: 19mn 3s
Bit rate mode: Constant
Bit rate: 448 Kbps
Channel(s): 6 channels
Channel positions: Front: L C R, Surround: L R, LFE
Sampling rate: 48.0 KHz
Video delay: -288ms
Stream size: 61.1 MiB (6%)

Audio #2
ID: 129 (0x81)
Format: AC-3
Format/Info: Audio Coding 3
Duration: 19mn 3s
Bit rate mode: Constant
Bit rate: 384 Kbps
Channel(s): 6 channels
Channel positions: Front: L C R, Surround: L R, LFE
Sampling rate: 48.0 KHz
Video delay: -288ms
Stream size: 52.4 MiB (5%)

Audio #3
ID: 130 (0x82)
Format: AC-3
Format/Info: Audio Coding 3
Duration: 19mn 3s
Bit rate mode: Constant
Bit rate: 384 Kbps
Channel(s): 6 channels
Channel positions: Front: L C R, Surround: L R, LFE
Sampling rate: 48.0 KHz
Video delay: -288ms
Stream size: 52.4 MiB (5%)

Audio #4
ID: 131 (0x83)
Format: AC-3
Format/Info: Audio Coding 3
Duration: 19mn 3s
Bit rate mode: Constant
Bit rate: 384 Kbps
Channel(s): 6 channels
Channel positions: Front: L C R, Surround: L R, LFE
Sampling rate: 48.0 KHz
Video delay: -288ms
Stream size: 52.4 MiB (5%)

Audio #5
ID: 132 (0x84)
Format: AC-3
Format/Info: Audio Coding 3
Format profile: Dolby Digital
Duration: 19mn 3s
Bit rate mode: Constant
Bit rate: 192 Kbps
Channel(s): 2 channels
Channel positions: L R
Sampling rate: 48.0 KHz
Video delay: -288ms
Stream size: 26.2 MiB (3%)

Text #1
ID: 32 (0x20)
Format: RLE
Format/Info: Run-length encoding
Video delay: -288ms

Text #2
ID: 33 (0x21)
Format: RLE
Format/Info: Run-length encoding
Video delay: -288ms

Text #3
ID: 34 (0x22)
Format: RLE
Format/Info: Run-length encoding
Video delay: -288ms

Text #4
ID: 35 (0x23)
Format: RLE
Format/Info: Run-length encoding
Video delay: -288ms

Text #5
ID: 36 (0x24)
Format: RLE
Format/Info: Run-length encoding
Video delay: -288ms

Text #6
ID: 37 (0x25)
Format: RLE
Format/Info: Run-length encoding
Video delay: -288ms

Text #7
ID: 38 (0x26)
Format: RLE
Format/Info: Run-length encoding
Video delay: -288ms

Text #8
ID: 39 (0x27)
Format: RLE
Format/Info: Run-length encoding
Video delay: -288ms

Text #9
ID: 40 (0x2
Format: RLE
Format/Info: Run-length encoding
Video delay: -288ms

Text #10
ID: 41 (0x29)
Format: RLE
Format/Info: Run-length encoding
Video delay: -288ms

Text #11
ID: 42 (0x2A)
Format: RLE
Format/Info: Run-length encoding
Video delay: -288ms

Text #12
ID: 43 (0x2B)
Format: RLE
Format/Info: Run-length encoding
Video delay: -288ms

Text #13
ID: 44 (0x2C)
Format: RLE
Format/Info: Run-length encoding
Video delay: -288ms

Text #14
ID: 45 (0x2D)
Format: RLE
Format/Info: Run-length encoding
Video delay: -288ms

Text #15
ID: 46 (0x2E)
Format: RLE
Format/Info: Run-length encoding
Video delay: -288ms

Text #16
ID: 47 (0x2F)
Format: RLE
Format/Info: Run-length encoding
Video delay: -288ms

Text #17
ID: 48 (0x30)
Format: RLE
Format/Info: Run-length encoding
Video delay: -288ms

Text #18
ID: 49 (0x31)
Format: RLE
Format/Info: Run-length encoding
Video delay: -288ms

Text #19
ID: 50 (0x32)
Format: RLE
Format/Info: Run-length encoding
Video delay: -288ms

Menu
Format: DVD-Video

Сценарий: Нэнси Пиментал
Продюсер: Стюарт М. Бессер, Дикси Дж. Кэпп, Кэти Конрад, ...
Оператор: Энтони Б. Ричмонд
Композитор: Грег Кэмп, Мейси Грей, Ашер, ...
Художник: Джон Гари Стил, Денис Уингейт, Гершон Гинсбург, ...
Монтаж: Венди Грин Брикмонт, Дэвид Ренни
Бюджет: $43 000 000
Маркетинг: $27 000 000
Сборы в США: $24 718 164
Сборы в мире: + $43 978 606 = $68 696 770
Сборы в России: $476 830
Зрители: США4.21 млн., Германия1.1 млн., Испания767.5 тыс.
Премьера (мир): 12 апреля 2002
Премьера (РФ): 8 августа 2002, «Каскад»























всего на 19-ти языках















Поделиться:




реклама партнёра


Вернуться к началу
 Профиль Отправить личное сообщение  
 
   Похожие торренты   Автор   Торрент   Размер 
В этой теме нет новых непрочитанных сообщений. Милашка / The Sweetest Thing [Мелодрама, комедия, 2002] WEB-DLRip, Dub

salma3

157 | 7

1.37 ГБ

В этой теме нет новых непрочитанных сообщений. Милашка / The Sweetest Thing [мелодрама, комедия, 2002] HDTVRip, Mvo [НТВ+]

salma3

140 | 5

1.45 ГБ

В этой теме нет новых непрочитанных сообщений. Абсолютно точно / The Sure Thing [драма, мелодрама, комедия, 1985] BDRip 1080p, Dvo

salma3

23 | 2

4.37 ГБ

В этой теме нет новых непрочитанных сообщений. Мальчишник / Между нами мальчиками / A Guy Thing (Крис Кох / Chris Koch) [2003г., мелодрама, комедия, BDRip-AVC] MVO

Alfredovich

36 | 7

2.9 ГБ

В этой теме нет новых непрочитанных сообщений. Милашка: Сделано в Ченнаи / Bujjigaadu: Made in Chennai [Мелодрама, 2008] DVDRip, Mvo [Red Media]

salma3

12 | 6

2.05 ГБ

В этой теме нет новых непрочитанных сообщений. Милашка Рита / Lovely Rita, sainte patronne des cas désespérés [Комедия, криминал, 2003] DVDRip, Mvo

salma3

63 | 2

1.45 ГБ

В этой теме нет новых непрочитанных сообщений. Кролик-убийца / Bunny the Killer Thing [ужасы, боевик, комедия, 2015] HDRip, Avo

salma3

0 | 0

1.46 ГБ


Начать новую тему Ответить на тему  [ 1 сообщение ] 




Для Мосгорсуда, Роскомнадзора и рекламодателей:: mosgorsud-torrent[собачка]yandex.ru