Торрент файл
скачать торрент магнет ссылка Добавлен: 07 янв 2012, 19:26
Размер: 6.42 ГБ
Сидеров: 0
Личеров: 3
Автор

СообщениеДобавлено: 07 янв 2012, 19:26 

Не в сети
Супермодератор
Аватара пользователя
Дата регистрации:
11 апр 2010, 18:10
Спасибо: 5801 / 7
Сообщения: 56779
Однажды в Вегасе / What Happens in Vegas

Перевод: Профессиональный (полное дублирование)
Субтитры: Английские, эстонские, греческие, иврит, исландские, латвийские, литовские, польские, румынские
Формат: DVD9, DVD Video, MPEG2, AC3
Страна: США
Режиссер: Том Вон
Жанр: Комедия, мелодрама
Продолжительность: 01:36:35
Год выпуска: 2008

В ролях: Кэмерон Диаз, Эштон Катчер, Роб Кордри, Лэйк Белл, Джейсон Судейкис, Трит Уильямс, Дирдри О’Коннелл, Мишель Крусик, Деннис Фарина, Зак Галифианакис ...

Роли дублировали: Елена Ивасишина, Сергей Бурунов, Андрей Бархударов, Татьяна Шитова, Лиза Мартиросова ...

Описание: После ночи кутежа в Городе Грехов двое совершенно незнакомых людей просыпаются в одной постели и пытаются восстановить ход событий вечера. Оказывается, они поженились и взяли огромный джек-пот. И вот на свежую голову молодожены (каждый сам про себя) разрабатывают план, как отделаться от своей «второй половины» и получить весь куш. Там, где замешаны деньги, нет места любви. Хотя в Вегасе случается всякое…

Рейтинг на КиноПоиск: 7.582 (23 665)
Рейтинг на IMDb: 6.0/10
Рейтинг MPAA: PG-13

Видео: 720X576 (PAL 16:9), 25.000fps, MPEG-2 Video, ~ 6 500Kbps avg
Аудио#1:Английский 48.0KHz, AC-3, 6 ch, ~ 448Kbps avg [Оригинал]
Аудио#2: Русский 48.0KHz, AC-3, 6 ch, ~ 384Kbps avg [Профессиональный (полное дублирование)]
Аудио#3: Украинский 48.0KHz, AC-3, 6 ch,~ 384Kbps avg [Профессиональный (полное дублирование)]
Аудио#4: Русский 48.0KHz, DTS, 6 ch, ~ 755Kbps avg [Профессиональный (полное дублирование)]
Аудио#5: Английский 48.0KHz, AC-3, 2 ch, ~ 192Kbps avg [Комментарий с режисером Томом Воном и редактором Мэттом Фридманом]



Трейлер к фильму
Слоган: «Ты везунчик!»

Сценарий: Дэна Фокс
Продюсер: Майкл Агиляр, Джозеф М. Карачиоло мл., Дин Георгарис, ...
Оператор: Мэтью Ф. Леонетти
Композитор: Кристоф Бек
Художник: Стюарт Вуртцель, Рени Эрлих Калфус, В. Стивен Грэхэм, ...
Монтаж: Мэтт Фридман
Бюджет: $35 000 000
Сборы в США: $80 277 646
Сборы в мире: + $138 974 611 = $219 252 257
Сборы в России: $9 062 500
DVD в США: $25 369 578
Зрители: Россия1.27 млн., Бразилия947.4 тыс., Нидерланды357.3 тыс.
Премьера (мир): 22 апреля 2008
Премьера (РФ): 8 мая 2008, «Фокс»
Релиз на DVD: 13 октября 2009, «Флагман-Трейд», ...
Релиз на Blu-Ray: 20 ноября 2008, «Двадцатый Век Фокс СНГ», ...

General
Complete name: C:\загрузка\What_Happens_in_Vegas_[tfile.ru]\VIDEO_TS\VTS_01_3.VOB
Format: MPEG-PS
File size: 1 024 MiB
Duration: 18mn 7s
Overall bit rate: 7 896 Kbps

Video
ID: 224 (0xE0)
Format: MPEG Video
Format version: Version 2
Format profile: Main@Main
Format settings, Matrix: Default
Duration: 18mn 7s
Bit rate mode: Variable
Bit rate: 5 420 Kbps
Nominal bit rate: 6 500 Kbps
Width: 720 pixels
Height: 576 pixels
Display aspect ratio: 16/9
Frame rate: 25.000 fps
Standard: PAL
Colorimetry: 4:2:0
Scan type: Progressive
Scan order: Top Field First
Bits/(Pixel*Frame): 0.523
Stream size: 703 MiB (69%)

Audio #1
ID: 128 (0x80)
Format: AC-3
Format/Info: Audio Coding 3
Duration: 18mn 7s
Bit rate mode: Constant
Bit rate: 448 Kbps
Channel(s): 6 channels
Channel positions: Front: L C R, Surround: L R, LFE
Sampling rate: 48.0 KHz
Video delay: -323ms
Stream size: 58.1 MiB (6%)

Audio #2
ID: 130 (0x82)
Format: AC-3
Format/Info: Audio Coding 3
Duration: 18mn 7s
Bit rate mode: Constant
Bit rate: 384 Kbps
Channel(s): 6 channels
Channel positions: Front: L C R, Surround: L R, LFE
Sampling rate: 48.0 KHz
Video delay: -323ms
Stream size: 49.8 MiB (5%)

Audio #3
ID: 131 (0x83)
Format: AC-3
Format/Info: Audio Coding 3
Duration: 18mn 7s
Bit rate mode: Constant
Bit rate: 384 Kbps
Channel(s): 6 channels
Channel positions: Front: L C R, Surround: L R, LFE
Sampling rate: 48.0 KHz
Video delay: -323ms
Stream size: 49.8 MiB (5%)

Audio #4
ID: 132 (0x84)
Format: AC-3
Format/Info: Audio Coding 3
Duration: 18mn 7s
Bit rate mode: Constant
Bit rate: 192 Kbps
Channel(s): 2 channels
Channel positions: L R
Sampling rate: 48.0 KHz
Video delay: -323ms
Stream size: 24.9 MiB (2%)

Audio #5
ID: 137 (0x89)
Format: DTS
Format/Info: Digital Theater Systems
Duration: 18mn 7s
Bit rate mode: Constant
Bit rate: 755 Kbps
Channel(s): 6 channels
Channel positions: Front: L C R, Surround: L R, LFE
Sampling rate: 48.0 KHz
Resolution: 24 bits
Video delay: -323ms
Stream size: 97.8 MiB (10%)

Text #1
ID: 32 (0x20)
Format: RLE
Format/Info: Run-length encoding
Video delay: -323ms

Text #2
ID: 33 (0x21)
Format: RLE
Format/Info: Run-length encoding
Video delay: -323ms

Text #3
ID: 34 (0x22)
Format: RLE
Format/Info: Run-length encoding
Video delay: -323ms

Text #4
ID: 35 (0x23)
Format: RLE
Format/Info: Run-length encoding
Video delay: -323ms

Text #5
ID: 36 (0x24)
Format: RLE
Format/Info: Run-length encoding
Video delay: -323ms

Text #6
ID: 37 (0x25)
Format: RLE
Format/Info: Run-length encoding
Video delay: -323ms

Text #7
ID: 38 (0x26)
Format: RLE
Format/Info: Run-length encoding
Video delay: -323ms

Text #8
ID: 39 (0x27)
Format: RLE
Format/Info: Run-length encoding
Video delay: -323ms

Text #9
ID: 40 (0x2
Format: RLE
Format/Info: Run-length encoding
Video delay: -323ms

Text #10
ID: 41 (0x29)
Format: RLE
Format/Info: Run-length encoding
Video delay: -323ms

Text #11
ID: 42 (0x2A)
Format: RLE
Format/Info: Run-length encoding
Video delay: -323ms

Text #12
ID: 43 (0x2B)
Format: RLE
Format/Info: Run-length encoding
Video delay: -323ms

Menu
Format: DVD-Video























Всего на 9-ти языках













Поделиться:




реклама партнёра


Вернуться к началу
 Профиль Отправить личное сообщение  
 
   Похожие торренты   Автор   Торрент   Размер 
В этой теме нет новых непрочитанных сообщений. Однажды на матрасе / Once Upon a Mattress [мелодрама, комедия, мюзикл, 2005] DVDRip, Dvo [НТВ+]

salma3

2 | 1

1.37 ГБ

В этой теме нет новых непрочитанных сообщений. Разрушение Лас-Вегаса / Blast Vegas / Destruction: Las Vegas [боевик, триллер, приключения, 2013] HDTVRip, Mvo [СТС]

salma3

483 | 30

1.45 ГБ

В этой теме нет новых непрочитанных сообщений. Холостячки в Вегасе / Best Night Ever [Комедия, 2014] WEB-DLRip-AVC, Dub

salma3

210 | 4

1.45 ГБ

В этой теме нет новых непрочитанных сообщений. Холостячки в Вегасе / Best Night Ever [Комедия, 2014] WEB-DLRip, Dub

salma3

1977 | 61

1.37 ГБ

В этой теме нет новых непрочитанных сообщений. Холостячки в Вегасе / Best Night Ever [комедия, 2014] DVD5 R5, MVO [Лицензия]

hobbit1021

87 | 8

3.44 ГБ

В этой теме нет новых непрочитанных сообщений. Холостячки в Вегасе / Best Night Ever [Комедия, 2014] HDRip-AVC, MVO [Лицензия]

hobbit1021

316 | 22

2.3 ГБ

В этой теме нет новых непрочитанных сообщений. Холостячки в Вегасе / Best Night Ever [Комедия, 2014] DVDRip, MVO [Лицензия]

hobbit1021

823 | 28

1.37 ГБ


Начать новую тему Ответить на тему  [ 1 сообщение ] 




Для Мосгорсуда, Роскомнадзора и рекламодателей:: mosgorsud-torrent[собачка]yandex.ru