Торрент файл
скачать торрент магнет ссылка Добавлен: 07 янв 2012, 19:22
Размер: 7.01 ГБ
Сидеров: 2
Личеров: 4
Автор

СообщениеДобавлено: 07 янв 2012, 19:22 

Не в сети
Супермодератор
Аватара пользователя
Дата регистрации:
11 апр 2010, 18:10
Спасибо: 5801 / 7
Сообщения: 56779
Про любоff

Перевод: Не требуется
Субтитры: Отсутствуют
Формат: DVD9, DVD Video, MPEG2, AC3
Страна: Россия
Режиссер: Ольга Субботина
Жанр: Мелодрама
Продолжительность: 01:46:17
Год выпуска: 2010

В ролях: Фёдор Бондарчук, Оксана Фандера, Ольга Сутулова, Мария Машкова, Евгений Стычкин, Андрей Кузичев, Анна Старшенбаум, Юозас Будрайтис, Александр Пугачев ,Антон Степанов ...

Описание: У девушки Даши, приехавшей с подругой «покорять» Москву, редкая специальность — преподаватель техники речи, а жизнь — самая обыкновенная: съемная квартира, невысокие гонорары и занятия с утра до вечера. Однажды Даша получает выгодное предложение — дать уроки преуспевающему бизнесмену Владу, участвующему в политических выборах. У героев начинается бурный роман. Но случайная встреча с женой Влада заставляет Дашу взглянуть на происходящее совсем с другой стороны. И Влад оказывается совсем не героем романа и вовсе не мужчиной мечты…

Рейтинг на КиноПоиск: 5.416 (1 322)
Рейтинг на IMDb: 5.3/10

Видео: 720X576 (PAL 4:3), 25.000fps, MPEG-2 Video, ~ 8 000Kbps avg
Аудио#1: Русский 48.0KHz, AC-3, 6 ch, ~ 448Kbps avg
Аудио#2: Русский 48.0KHz, DTS, 6 ch, ~ 1 510Kbps avg

Дополнительно на DVD:
Создатели и исполнители, каталог, фотогалерея, смотрите на DVD[/field]

Меню:Анимированное / озвученное[/field]



Трейлер к фильму

General
Complete name: C:\загрузка\Pro_luboff_[tfile.ru]\VIDEO_TS\VTS_05_3.VOB
Format: MPEG-PS
File size: 1 024 MiB
Duration: 17mn 39s
Overall bit rate: 8 106 Kbps

Video
ID: 224 (0xE0)
Format: MPEG Video
Format version: Version 2
Format profile: Main@Main
Format settings, Matrix: Default
Duration: 17mn 39s
Bit rate mode: Variable
Bit rate: 5 827 Kbps
Nominal bit rate: 8 000 Kbps
Width: 720 pixels
Height: 576 pixels
Display aspect ratio: 4/3
Frame rate: 25.000 fps
Standard: PAL
Colorimetry: 4:2:0
Scan type: Interlaced
Scan order: Top Field First
Bits/(Pixel*Frame): 0.562
Stream size: 736 MiB (72%)

Audio #1
ID: 128 (0x80)
Format: AC-3
Format/Info: Audio Coding 3
Duration: 17mn 39s
Bit rate mode: Constant
Bit rate: 448 Kbps
Channel(s): 6 channels
Channel positions: Front: L C R, Surround: L R, LFE
Sampling rate: 48.0 KHz
Video delay: -470ms
Stream size: 56.6 MiB (6%)

Audio #2
ID: 137 (0x89)
Format: DTS
Format/Info: Digital Theater Systems
Duration: 17mn 39s
Bit rate mode: Constant
Bit rate: 1 510 Kbps
Channel(s): 6 channels
Channel positions: Front: L C R, Surround: L R, LFE
Sampling rate: 48.0 KHz
Resolution: 24 bits
Video delay: -470ms
Stream size: 191 MiB (19%)

Menu
Format: DVD-Video

Сценарий: Виктория Евсеева, Оксана Робски
Продюсер: Игорь Толстунов, Вера Виленская
Оператор: Михаил Агранович
Композитор: Глеб Матвейчук, Андрей Комиссаров
Бюджет: $2 000 000
Сборы в России: $1 268 417
Зрители: Россия195.2 тыс.
Премьера (мир): 30 сентября 2010
Премьера (РФ): 30 сентября 2010, «Наше Кино»
Релиз на DVD: 28 октября 2010, «CP-Digital», ...






















Поделиться:




реклама партнёра


Вернуться к началу
 Профиль Отправить личное сообщение  
 
   Похожие торренты   Автор   Торрент   Размер 
В этой теме нет новых непрочитанных сообщений. В час беды [Серии 1-2 из 2] (Ольга Ланд) [Мелодрама, 2015] HDTVRiр

Dracon

7 | 4

2.74 ГБ

В этой теме нет новых непрочитанных сообщений. Ветреная женщина [01-10 из 12] (Ольга Перуновская) [Мелодрама, 2014] HDTVRip

Dracon

5 | 0

6.05 ГБ

В этой теме нет новых непрочитанных сообщений. Идеальная пара (Ольга Доброва-Куликова) [Мелодрама, 2014] SATRip

Dracon

1106 | 52

1.25 ГБ

В этой теме нет новых непрочитанных сообщений. Ветреная женщина [01-12 из 12] (Ольга Перуновская) [Мелодрама, 2014] HDTVRip 1080i

Dracon

19 | 5

21.18 ГБ

В этой теме нет новых непрочитанных сообщений. Идеальная пара (Ольга Доброва-Куликова) [Мелодрама, 2014] HDTV 1080i

Dracon

197 | 16

5.4 ГБ

В этой теме нет новых непрочитанных сообщений. Если любишь - прости (Ольга Доброва-Куликова) [Мелодрама, 2015] SATRip

Dracon

2 | 6

1.37 ГБ

В этой теме нет новых непрочитанных сообщений. Если любишь - прости (Ольга Доброва-Куликова) [Мелодрама, 2015] HDTV 1080i

Dracon

19 | 6

6.92 ГБ


Начать новую тему Ответить на тему  [ 1 сообщение ] 




Для Мосгорсуда, Роскомнадзора и рекламодателей:: mosgorsud-torrent[собачка]yandex.ru