Торрент файл
скачать торрент магнет ссылка Добавлен: 07 янв 2012, 19:20
Размер: 6.27 ГБ
Сидеров: 2
Личеров: 8
Автор

СообщениеДобавлено: 07 янв 2012, 19:20 

Не в сети
Супермодератор
Аватара пользователя
Дата регистрации:
11 апр 2010, 18:10
Спасибо: 5801 / 7
Сообщения: 56779
Евротур / EuroTrip

Перевод: Профессиональный (многоголосый, закадровый)
Субтитры: Английские, испанские, русские
Формат: DVD9, DVD Video, MPEG2, AC3
Страна: США
Режиссер: Джеф Шэффер, Алек Берг, Дэвид Мэндел
Жанр: Комедия, приключения
Продолжительность: 01:31:45
Год выпуска: 2004

В ролях: Скотт Мехловиц, Джекоб Питтс, Кристин Кройк, Кэти Мейлс, Ниел Исхаков, Мишель Трахтенберг, Трэвис Уэстер, Мэтт Дэймон, Дж. Адамс, Кристофер Бейрд ...

Описание: Скотт Томас завел себе друга по переписке из Германии из самых практичных соображений. Он хотел получить отличную оценку по немецкому, а некто с именем Мик согласился перевести его домашние работы. Но вскоре выяснилось, что Мик — обворожительная блондинка, которая не прочь увидеть своего американского друга вживую.
После выпускных экзаменов Скотт прихватывает нескольких близких друзей и летит в Европу. Впереди его ждет увлекательное, хоть и беспокойное путешествие из Лондона в Берлин через Париж и Амстердам…


Рейтинг на КиноПоиск: 7.661 (24 945)
Рейтинг на IMDb: 6.5/10
Рейтинг MPAA: R

Видео: 720X480 (NTSC 16:9), 23.976fps, MPEG-2 Video, ~ 9 800Kbps avg
Аудио#1: Английский 48.0KHz, AC-3, 6 ch, ~ 448Kbps avg [Оригинал][/field]
Аудио#2: Испанский 48.0KHz, AC-3, 6 ch, ~ 384Kbps avg
Аудио#3: Русский 48.0KHz, AC-3, 6 ch, ~ 384Kbps avg [Профессиональный (многоголосый, закадровый)]
Аудио#4: Английский 48.0KHz, AC-3, 2 ch, ~ 192Kbps avg [Комментарий к фильму]

Меню:Анимированное / озвученное



Слоган:[font=Coo�t>Sans MS] «No actual Europeans were harmed in the making of this film.»[/font]
Трейлер к фильму

General
Complete name: C:\загрузка\EuroTrip_[tfile.ru]\VIDEO_TS\VTS_07_3.VOB
Format: MPEG-PS
File size: 1 024 MiB
Duration: 20mn 22s
Overall bit rate: 7 026 Kbps

Video
ID: 224 (0xE0)
Format: MPEG Video
Format version: Version 2
Format profile: Main@Main
Format settings, Matrix: Default
Duration: 20mn 22s
Bit rate mode: Variable
Bit rate: 5 339 Kbps
Nominal bit rate: 9 800 Kbps
Width: 720 pixels
Height: 480 pixels
Display aspect ratio: 16/9
Frame rate: 23.976 fps
Standard: NTSC
Colorimetry: 4:2:0
Scan type: Progressive
Scan order: 2:3 Pulldown
Bits/(Pixel*Frame): 0.644
Stream size: 778 MiB (76%)

Audio #1
ID: 128 (0x80)
Format: AC-3
Format/Info: Audio Coding 3
Duration: 20mn 22s
Bit rate mode: Constant
Bit rate: 448 Kbps
Channel(s): 6 channels
Channel positions: Front: L C R, Surround: L R, LFE
Sampling rate: 48.0 KHz
Video delay: -204ms
Stream size: 65.3 MiB (6%)

Audio #2
ID: 129 (0x81)
Format: AC-3
Format/Info: Audio Coding 3
Duration: 20mn 22s
Bit rate mode: Constant
Bit rate: 384 Kbps
Channel(s): 6 channels
Channel positions: Front: L C R, Surround: L R, LFE
Sampling rate: 48.0 KHz
Video delay: -204ms
Stream size: 56.0 MiB (5%)

Audio #3
ID: 130 (0x82)
Format: AC-3
Format/Info: Audio Coding 3
Duration: 20mn 22s
Bit rate mode: Constant
Bit rate: 384 Kbps
Channel(s): 6 channels
Channel positions: Front: L C R, Surround: L R, LFE
Sampling rate: 48.0 KHz
Video delay: -204ms
Stream size: 56.0 MiB (5%)

Audio #4
ID: 131 (0x83)
Format: AC-3
Format/Info: Audio Coding 3
Duration: 20mn 22s
Bit rate mode: Constant
Bit rate: 192 Kbps
Channel(s): 2 channels
Channel positions: L R
Sampling rate: 48.0 KHz
Video delay: -204ms
Stream size: 28.0 MiB (3%)

Text #1
ID: 32 (0x20)
Format: RLE
Format/Info: Run-length encoding
Duration: 20mn 21s
Video delay: -204ms

Text #2
ID: 33 (0x21)
Format: RLE
Format/Info: Run-length encoding
Duration: 20mn 21s
Video delay: -204ms

Text #3
ID: 34 (0x22)
Format: RLE
Format/Info: Run-length encoding
Duration: 20mn 21s
Video delay: -204ms

Text #4
ID: 35 (0x23)
Format: RLE
Format/Info: Run-length encoding
Duration: 20mn 21s
Video delay: -204ms

Text #5
ID: 36 (0x24)
Format: RLE
Format/Info: Run-length encoding
Duration: 20mn 21s
Video delay: -204ms

Text #6
ID: 37 (0x25)
Format: RLE
Format/Info: Run-length encoding
Duration: 20mn 21s
Video delay: -204ms

Menu
Format: DVD-Video

* Съемки картины начались 5-го мая 2003 года в Праге. Съемки длились 10 недель, закончившись в середине июля того же года.
* Рабочим названием картины было «Ugly Americans», но из-за иракских событий название сочли слишком вызывающим. Затем было рассмотрено несколько других названий, таких как «A Fistful of Euros», «Europe on $07 a Day», «Going Abroad», «Road Trip: Let`s Go Europe!», «Scott Does Europe» и «What a Frau Wants». Но остановились на коротеньком «Eurotrip».
* Картина является режиссерским дебютом в большом кино Джеффа Шеффера.
* Часть фильма, обозначенная как Братислава, снималась в городе Миловице, Чехия. В данном городе располагался штаб советской Центральной Группы Войск в 1968—1991.
* Когда Скотти читает письмо от Микки, то смотрит в словаре слово «zussamen». Но если присмотреться в текст, то этого слова нет. А когда камера снимает письмо крупным планом, это слово появляется.
Сценарий: Алек Берг, Дэвид Мэндел, Джеф Шэффер
Продюсер: Алек Берг, Мэттью Стиллман, Джеф Шэффер, ...
Оператор: Дэвид Эггби
Композитор: Джеймс Л. Винейбл
Художник: Аллан Старски, Джулия Кэстон, Ванесса Фогель, ...
Монтаж: РоджерРонделли
Бюджет: $25 000 000
Маркетинг: $15 000 000
Сборы в США: $17 771 387
Сборы в мире: + $3 025 460 = $20 796 847
Сборы в России: $1 030 000
Зрители: США2.9 млн., Великобритания110.3 тыс.,Нидерланды35.2 тыс.
Премьера (мир): 20 февраля 2004
Премьера (РФ): 26 августа 2004, «Централ Партнершип»
Релиз на DVD: 25 июня 2009, «CP-Digital», ...



























Поделиться:




реклама партнёра


Вернуться к началу
 Профиль Отправить личное сообщение  
 
   Похожие торренты   Автор   Торрент   Размер 
В этой теме нет новых непрочитанных сообщений. Евротур / EuroTrip [Комедия, приключения, 2004] BDRip, Dub [КПК]

salma3

22 | 3

578 МБ

В этой теме нет новых непрочитанных сообщений. Агент Коди Бэнкс 2: Пункт назначения - Лондон / Agent Cody Banks 2: Destination London [боевик, приключения, семейный, 2004] DVD9, Dub+Dvo+Sub

salma3

13 | 5

6.46 ГБ

В этой теме нет новых непрочитанных сообщений. Игроки / Ballers [01x01-10 из 10] (Питер Берг) [драма, комедия, 2015] HDTVRip [Amedia]

Dracon

451 | 298

4.71 ГБ

В этой теме нет новых непрочитанных сообщений. Игроки / Ballers [01x01-10 из 10] (Питер Берг) [драма, комедия, 2015] HDTV 1080i [Amedia]

Dracon

112 | 64

13.19 ГБ

В этой теме нет новых непрочитанных сообщений. Игроки / Ballers [01х01-10 из 10] (Питер Берг) [драма, комедия, 2015] HDTVRip 720p [Amedia]

Dracon

74 | 57

9.28 ГБ

В этой теме нет новых непрочитанных сообщений. Стрела / Arrow [03x01-14] (Дэвид Баррет, Дэвид Наттер) [2014, фантастика, боевик, драма, детектив, приключения, HDTVRip | Kerob]

Nickolas3435

16 | 51

6.54 ГБ

В этой теме нет новых непрочитанных сообщений. Стрела / Arrow [03x01-02] (Дэвид Баррет, Дэвид Наттер) [2014, фантастика, боевик, драма, детектив, приключения, HDTVRip | Kerob]

Nickolas3435

184 | 144

983.79 МБ


Начать новую тему Ответить на тему  [ 1 сообщение ] 




Для Мосгорсуда, Роскомнадзора и рекламодателей:: mosgorsud-torrent[собачка]yandex.ru