Торрент файл
скачать торрент магнет ссылка Добавлен: 07 янв 2012, 19:17
Размер: 6.12 ГБ
Сидеров: 0
Личеров: 4
Автор

СообщениеДобавлено: 07 янв 2012, 19:17 

Не в сети
Супермодератор
Аватара пользователя
Дата регистрации:
11 апр 2010, 18:10
Спасибо: 5801 / 7
Сообщения: 56779
Госпожа горничная / Maid in Manhattan

Перевод: Профессиональный (полное дублирование)
Субтитры:Английский, русский, арабский, болгарский, хорватский, чешский, греческий, хинди, венгерский, исландский, польский, румынский, сербский, словенский, турецкий
Формат: DVD9, DVD Video, MPEG2, AC3
Страна: США
Режиссер: Уэйн Ван
Жанр: Драма, мелодрама, комедия
Продолжительность: 01:40:58
Год выпуска: 2002

В ролях: Дженнифер Лопез, Рэйф Файнс, Наташа Ричардсон, Стенли Туччи, Тайлер Пози, Фрэнсис Конрой, Кристофер Айджмен, Эми Седарис, Марисса Мэтроун, Присцилла Лопез ...

Роли дублировали: Анна Геллер, Максим Сергеев, Александра Кожевникова, Валерий Кухарешин, Олег Куликович ...

Описание: Дженнифер Лопез — Мариса Вентура, независимая мать — одиночка, которая живет в Бронксе с сыном Ти, и работает горничной в первоклассном Манхэттенском отеле. Она мечтает о лучшей жизни, но с ребенком достичь этого достаточно сложно.
Кристофер Хэлл, красивый, обаятельный наследник известной американской политической династии, приехал в Нью-Йорк на неделю для встречи с важными шишками из политического бомонда и останавливается в отеле, где работает Мариса. По стечению обстоятельств и странным поворотам судьбы они встречаются…


Рейтинг на КиноПоиск: 6.618 (5 70
Рейтинг на IMDb: 4.6/10
Рейтинг MPAA: PG-13

Видео: 720X576 (PAL 16:9), 25.000fps, MPEG-2 Video, ~ 9 800Kbps avg
Аудио#1: Английский 48.0KHz, AC-3, 6 ch, ~ 448Kbps avg[Оригинал][/field]
Аудио#2: Венгерский 48.0KHz, AC-3, 6 ch, ~ 448Kbps avg
Аудио#3: Русский 48.0KHz, AC-3, 6 ch, ~ 448Kbps avg[Профессиональный (полное дублирование)]
Аудио#4: Чешский 48.0KHz, AC-3, 6 ch, ~ 448Kbps avg



Трейлер к фильму
Слоган: «cupid in central park...»

General
Complete name: C:\загрузка\Maid_in_Manhattan_[tfile.ru]\VIDEO_TS\VTS_01_3.VOB
Format: MPEG-PS
File size: 1 024 MiB
Duration: 17mn 34s
Overall bit rate: 8 147 Kbps

Video
ID: 224 (0xE0)
Format: MPEG Video
Format version: Version 2
Format profile: Main@Main
Format settings, Matrix: Default
Duration: 17mn 34s
Bit rate mode: Variable
Bit rate: 6 031 Kbps
Nominal bit rate: 9 800 Kbps
Width: 720 pixels
Height: 576 pixels
Display aspect ratio: 16/9
Frame rate: 25.000 fps
Standard: PAL
Colorimetry: 4:2:0
Scan type: Interlaced
Scan order: Top Field First
Bits/(Pixel*Frame): 0.582
Stream size: 758 MiB (74%)

Audio #1
ID: 128 (0x80)
Format: AC-3
Format/Info: Audio Coding 3
Duration: 17mn 34s
Bit rate mode: Constant
Bit rate: 448 Kbps
Channel(s): 6 channels
Channel positions: Front: L C R, Surround: L R, LFE
Sampling rate: 48.0 KHz
Video delay: -176ms
Stream size: 56.3 MiB (5%)

Audio #2
ID: 129 (0x81)
Format: AC-3
Format/Info: Audio Coding 3
Duration: 17mn 34s
Bit rate mode: Constant
Bit rate: 448 Kbps
Channel(s): 6 channels
Channel positions: Front: L C R, Surround: L R, LFE
Sampling rate: 48.0 KHz
Video delay: -176ms
Stream size: 56.3 MiB (5%)

Audio #3
ID: 130 (0x82)
Format: AC-3
Format/Info: Audio Coding 3
Duration: 17mn 34s
Bit rate mode: Constant
Bit rate: 448 Kbps
Channel(s): 6 channels
Channel positions: Front: L C R, Surround: L R, LFE
Sampling rate: 48.0 KHz
Video delay: -176ms
Stream size: 56.3 MiB (5%)

Audio #4
ID: 131 (0x83)
Format: AC-3
Format/Info: Audio Coding 3
Duration: 17mn 34s
Bit rate mode: Constant
Bit rate: 448 Kbps
Channel(s): 6 channels
Channel positions: Front: L C R, Surround: L R, LFE
Sampling rate: 48.0 KHz
Video delay: -176ms
Stream size: 56.3 MiB (5%)

Text #1
ID: 32 (0x20)
Format: RLE
Format/Info: Run-length encoding
Video delay: -176ms

Text #2
ID: 33 (0x21)
Format: RLE
Format/Info: Run-length encoding
Video delay: -176ms

Text #3
ID: 34 (0x22)
Format: RLE
Format/Info: Run-length encoding
Video delay: -176ms

Text #4
ID: 35 (0x23)
Format: RLE
Format/Info: Run-length encoding
Video delay: -176ms

Text #5
ID: 36 (0x24)
Format: RLE
Format/Info: Run-length encoding
Video delay: -176ms

Text #6
ID: 37 (0x25)
Format: RLE
Format/Info: Run-length encoding
Video delay: -176ms

Text #7
ID: 38 (0x26)
Format: RLE
Format/Info: Run-length encoding
Video delay: -176ms

Text #8
ID: 39 (0x27)
Format: RLE
Format/Info: Run-length encoding
Video delay: -176ms

Text #9
ID: 40 (0x2
Format: RLE
Format/Info: Run-length encoding
Video delay: -176ms

Text #10
ID: 41 (0x29)
Format: RLE
Format/Info: Run-length encoding
Video delay: -176ms

Text #11
ID: 42 (0x2A)
Format: RLE
Format/Info: Run-length encoding
Video delay: -176ms

Text #12
ID: 43 (0x2B)
Format: RLE
Format/Info: Run-length encoding
Video delay: -176ms

Text #13
ID: 44 (0x2C)
Format: RLE
Format/Info: Run-length encoding
Video delay: -176ms

Text #14
ID: 45 (0x2D)
Format: RLE
Format/Info: Run-length encoding
Video delay: -176ms

Text #15
ID: 46 (0x2E)
Format: RLE
Format/Info: Run-length encoding
Video delay: -176ms

Menu
Format: DVD-Video

* Первоначально главную роль должна была исполнять Сандра Баллок или Хилари Суонк, а ставить картину Джон Хьюз, но последний остался только в качестве сценариста.
* Первоначально картина называлась «The Chambermaid», что в точном переводе и означает «горничная».
* Съемки фильма начались 29 апреля 2002 года в Нью-Йорке, хотя должны были начаться годом раньше. Закончились съемки в августе 2002 года.

Сценарий: Джон Хьюз, Кевин Уэйд
Продюсер: Ричард Баратта, Элейн Голдсмит-Томас, Бенни Медина, ...
Оператор: Карл Вальтер Линденлауб
Композитор: Алан Сильвестри
Художник: Джейн Маски, Альберт Вольски, Патриция Вудбридж, ...
Монтаж: Крэйг МакКэй
Бюджет: $55 000 000
Маркетинг: $33 000 000
Сборы в США: $94 011 225
Сборы в мире: + $60 895 468 = $154 906 693
Зрители: США14.2 млн., Великобритания1.72 млн., Германия1.42 млн.
Премьера (мир): 13 декабря 2002
Премьера (РФ): 5 марта 2003, «Каскад»
Релиз на Blu-Ray: 11 декабря 2008, «Columbia\Sony», ...
Релиз на DVD: 13 мая 2010, «Columbia\Sony», ...































Поделиться:




реклама партнёра


Вернуться к началу
 Профиль Отправить личное сообщение  
 
   Похожие торренты   Автор   Торрент   Размер 
В этой теме нет новых непрочитанных сообщений. Госпожа горничная / Maid in Manhattan [драма, мелодрама, комедия, 2002] Blu-ray 1080p, Dub+Sub

salma3

27 | 13

26.56 ГБ

В этой теме нет новых непрочитанных сообщений. Горничная на заказ / Maid to Order [фэнтези, комедия, 1987] DVDRip, Dvo

salma3

16 | 2

1.37 ГБ

В этой теме нет новых непрочитанных сообщений. Робо - горничная / Служанка - робот / Rôjin to rabudôru: Watashi ga shochô ni natta toki... ./ Maid - Droid (Наоюки Томоматсу / Naoyuki Tomomatsu) [2008г., Япония, драма, фантастика, эротика, DVDRip] avo

Alfredovich

72 | 10

982.91 МБ

В этой теме нет новых непрочитанных сообщений. Моя Госпожа / My Mistress [Драма, мелодрама, 2014] SATRip, Mvo

salma3

2256 | 84

1.46 ГБ

В этой теме нет новых непрочитанных сообщений. Моя Госпожа / My Mistress (Стивен Лэнс) [Драма, мелодрама, 2014] WEB-DL 720p, Mvo

Dracon

6 | 3

3.5 ГБ

В этой теме нет новых непрочитанных сообщений. Моя Госпожа / My Mistress (Стивен Лэнс) [Драма, мелодрама, 2014] WEB-DLRip, Mvo

Dracon

218 | 7

1.45 ГБ

В этой теме нет новых непрочитанных сообщений. Госпожа Дила / Dila Hanim / 2 сезон 1-13 серия из 27 [мелодрама, теленовелла, 2013] TVRip, Avo

salma3

2 | 6

14.51 ГБ


Начать новую тему Ответить на тему  [ 1 сообщение ] 




Для Мосгорсуда, Роскомнадзора и рекламодателей:: mosgorsud-torrent[собачка]yandex.ru