Торрент файл
скачать торрент магнет ссылка Добавлен: 07 янв 2012, 19:17
Размер: 5.25 ГБ
Сидеров: 0
Личеров: 6
Автор

СообщениеДобавлено: 07 янв 2012, 19:17 

Не в сети
Супермодератор
Аватара пользователя
Дата регистрации:
11 апр 2010, 18:10
Спасибо: 5801 / 7
Сообщения: 56779
Свадебная вечеринка / The In-Laws

Перевод: Профессиональный (полное дублирование)
Субтитры: Русский
Формат: DVD9, DVD Video, MPEG2, AC3
Страна: США, Германия, Канада
Режиссер: Эндрю Флеминг
Жанр: Боевик, триллер, комедия
Продолжительность: 01:33:40
Год выпуска: 2003

В ролях: Майкл Дуглас, Майкл Боднар, Владимир Радян, Робин Танни, Альберт Брукс, Бойд Бэнкс, Susan Aceron, Линдсэй Слоун, Мария Рикосса, Райан Рейнольдс ...

Описание: Крутой агент ЦРУ во время секретной операции узнает, что его сын повзрослел и решил жениться. Он бросает все и летит на встречу с новыми родственниками. С этого момента жизнь мирного врача — отца невесты превращается в шпионский боевик: международные террористы и колумбийские контрабандисты, роковые красотки и большие-большие деньги, автомобильные погони и гонки на воде, свист пуль и визг тормозов… Ничто не может остановить папаш, когда свадьба их детей под угрозой!

Рейтинг на КиноПоиск: 6.795 (1 753)
Рейтинг на IMDb: 5.6/10
Рейтинг IMDb: PG-13

Видео: 720X576 (PAL 16:9), 25.000fps, MPEG-2 Video, ~ 9 000Kbps avg
Аудио#1: Русский 48.0KHz, AC-3, 6 ch, ~ 448Kbps avg[Профессиональный (полное дублирование)]
Аудио#2: Английский 48.0KHz, AC-3, 6 ch, ~ 448Kbps avg[Оригинал]
Аудио#3: Русский 48.0KHz, DTS, 6 ch, ~ 755Kbps avg[Профессиональный (полное дублирование)]



Трейлер к фильму
Слоган: «Знакомство с родителями невесты: невыполнимая миссия для агента ЦРУ»

General
Comr�lge name: C:\загрузка\The_In-Laws_[tfile.ru]\VIDEO_TS\VTS_05_3.VOB
Format: MPEG-PS
File size: 1 024 MiB
Duration: 18mn 4s
Overall bit rate: 7 920 Kbps

Video
ID: 224 (0xE0)
Format: MPEG Video
Format version: Version 2
Format profile: Main@Main
Format settings, Matrix: Default
Duration: 18mn 4s
Bit rate mode: Variable
Bit rate: 5 955 Kbps
Nominal bit rate: 9 000 Kbps
Width: 720 pixels
Height: 576 pixels
Display aspect ratio: 16/9
Frame rate: 25.000 fps
Standard: PAL
Colorimetry: 4:2:0
Scan type: Interlaced
Scan order: Top Field First
Bits/(Pixel*Frame): 0.574
Stream size: 770 MiB (75%)

Audio #1
ID: 128 (0x80)
Format: AC-3
Format/Info: Audio Coding 3
Duration: 18mn 4s
Bit rate mode: Constant
Bit rate: 448 Kbps
Channel(s): 6 channels
Channel positions: Front: L C R, Surround: L R, LFE
Sampling rate: 48.0 KHz
Video delay: -374ms
Stream size: 57.9 MiB (6%)

Audio #2
ID: 129 (0x81)
Format: AC-3
Format/Info: Audio Coding 3
Duration: 18mn 4s
Bit rate mode: Constant
Bit rate: 448 Kbps
Channel(s): 6 channels
Channel positions: Front: L C R, Surround: L R, LFE
Sampling rate: 48.0 KHz
Video delay: -374ms
Stream size: 57.9 MiB (6%)

Audio #3
ID: 138 (0x8A)
Format: DTS
Format/Info: Digital Theater Systems
Duration: 18mn 4s
Bit rate mode: Constant
Bit rate: 755 Kbps
Channel(s): 6 channels
Channel positions: Front: L C R, Surround: L R, LFE
Sampling rate: 48.0 KHz
Resolution: 24 bits
Video delay: -374ms
Stream size: 97.5 MiB (10%)

Text
ID: 32 (0x20)
Format: RLE
Format/Info: Run-length encoding
Duration: 18mn 3s
Video delay: -374ms

Menu
Format: DVD-Video

Сценарий: Эндрю Бергман, Нат Молдин, Эд Соломон
Продюсер: Дэвид Коутсворт, Билл Тодман мл., Билл Гербер, ...
Оператор: Александр Грушинский
Композитор: Клаус Бадельт, Бернард Эдвардс, Бэрри Гибб, ...
Художник: Эндрю МакАлпайн, Дебора Эвертон, Дэннис Девенпорт
Монтаж: Миа Голдман, Хезер Персонс
Сборы в США: $20 453 431
Сборы в мире: + $6 438 418 = $26 891 849
Зрители: США3.39 млн., Италия173.4 тыс., Испания127.9 тыс.
Премьера (мир): 17 мая 2003
Премьера (РФ): 4 сентября 2003, «Централ Партнершип»
Релиз на DVD: 19 ноября 2009, «CP-Digital», ...





















Поделиться:




реклама партнёра


Вернуться к началу
 Профиль Отправить личное сообщение  
 
   Похожие торренты   Автор   Торрент   Размер 
В этой теме нет новых непрочитанных сообщений. Плохие парни 2 / Bad Boys II [боевик, триллер, комедия, 2003] DVD9, Dub+Sub

salma3

23 | 8

5.66 ГБ

В этой теме нет новых непрочитанных сообщений. Агент Коди Бэнкс / Agent Cody Banks [Комедия, боевик, приключения, фантастика, 2003] DVD9, Dub+Dvo+Sub

salma3

5 | 6

7.86 ГБ

В этой теме нет новых непрочитанных сообщений. Убийственная вечеринка / Murder Party [Ужасы, триллер, драма, комедия, 2007] DVDRip, Mvo+Dvo [ТВ3]

salma3

77 | 6

1.46 ГБ

В этой теме нет новых непрочитанных сообщений. Плохие парни 2 / Bad Boys II [боевик, триллер, комедия, криминал, 2003] BDRip 720p, Dub+Sub

salma3

1 | 3

16.94 ГБ

В этой теме нет новых непрочитанных сообщений. Сокровище Амазонки / The Rundown [Боевик, триллер, комедия, приключения, 2003] BDRip, Avo [Гаврилов]

salma3

47 | 3

1.46 ГБ

В этой теме нет новых непрочитанных сообщений. Голливудские копы / Hollywood Homicide [боевик, триллер, комедия, криминал, 2003] HDRip, Dub [КПК]

salma3

5 | 4

1003.72 МБ

В этой теме нет новых непрочитанных сообщений. Голливудские копы / Hollywood Homicide [боевик, триллер, комедия, криминал, 2003] BDRip 720p, Dub+Mvo+Sub

salma3

2 | 3

7.21 ГБ


Начать новую тему Ответить на тему  [ 1 сообщение ] 




Для Мосгорсуда, Роскомнадзора и рекламодателей:: mosgorsud-torrent[собачка]yandex.ru