Торрент файл
скачать торрент магнет ссылка Добавлен: 07 янв 2012, 19:17
Размер: 7.7 ГБ
Сидеров: 9
Личеров: 7
Автор

СообщениеДобавлено: 07 янв 2012, 19:17 

Не в сети
Супермодератор
Аватара пользователя
Дата регистрации:
11 апр 2010, 18:10
Спасибо: 5801 / 7
Сообщения: 56779
Дикари

Перевод: Не требуется
Субтитры: Украинские
Формат: DVD9, DVD Video, MPEG2, AC3
Страна: Россия
Режиссер: Виктор Шамиров
Жанр: Драма, мелодрама, комедия
Продолжительность: 01:47:46
Год выпуска: 2006

В ролях: Гоша Куценко, Марат Башаров, Константин Юшкевич, Эвклид Кюрдзидис, Тихон Жизневский, Анна Небогатова, Владислав Галкин, Алексей Горбунов, Ирина Новак, Александр Гришаев ...

Описание: Море, август… Интересы людей просты: позагорать, поплавать, поиграть в волейбол, баскетбол, выпить, потанцевать вечером, найти партнера ночью… Многие вышли из студенческого возраста, могут позволить себе более комфортабельный отдых, но кончается июль, они кидают в багажник солидного автомобиля старую палатку и едут сюда.
Здесь не говорят о работе, здесь не важно, сколько у тебя денег… Множество человеческих историй, ценных, смешных и грустных. Внимание переходит от одного героя к другому, затем к третьему, возвращается к первому и цепляет на исходе эпизода четвертого, который был главный в предыдущем эпизоде. Рассказ строится скорее как музыка, чем как конструкция. И ритм, настроение повествования задает именно место действия.


Рейтинг на КиноПоиск: 6.474 (2 177)
Рейтинг на IMDb: 6.0/10

Видео: 720X576 (PAL 16:9), 25.000fps, MPEG-2 Video, ~ 8 000Kbps avg
Аудио#1: Русский 48.0KHz, AC-3, 6 ch, ~ 448Kbps avg[Оригинал]
Аудио#2: Русский 48.0KHz, DTS, 6 ch, ~ 755Kbps avg[Оригинал]

Дополнительно на DVD: Каталог, смотрите на DVD, создатели и исполнители, фильм о фильме, интервью, клип Гоши Куценко.
Меню: Анимированное, озвученное,с навигацией по эпизодам.Все кнопки функциональны.

Трейлер к фильму
Слоган: «Полтора часа лета!»

General
Complete name: C:\загрузка\Dikari_[tfile.ru]\VIDEO_TS\VTS_05_4.VOB
Format: MPEG-PS
File size: 1 024 MiB
Duration: 20mn 4s
Overall bit rate: 7 128 Kbps

Video
ID: 224 (0xE0)
Format: MPEG Video
Format version: Version 2
Format profile: Main@Main
Format settings, Matrix: Default
Duration: 20mn 4s
Bit rate mode: Variable
Bit rate: 5 643 Kbps
Nominal bit rate: 8 000 Kbps
Width: 720 pixels
Height: 576 pixels
Display aspect ratio: 16/9
Frame rate: 25.000 fps
Standard: PAL
Colorimetry: 4:2:0
Scan type: Interlaced
Scan order: Top Field First
Bits/(Pixel*Frame): 0.544
Stream size: 810 MiB (79%)

Audio #1
ID: 128 (0x80)
Format: AC-3
Format/Info: Audio Coding 3
Duration: 20mn 4s
Bit rate mode: Constant
Bit rate: 448 Kbps
Channel(s): 6 channels
Channel positions: Front: L C R, Surround: L R, LFE
Sampling rate: 48.0 KHz
Video delay: -648ms
Stream size: 64.3 MiB (6%)

Audio #2
ID: 137 (0x89)
Format: DTS
Format/Info: Digital Theater Systems
Duration: 20mn 4s
Bit rate mode: Constant
Bit rate: 755 Kbps
Channel(s): 6 channels
Channel positions: Front: L C R, Surround: L R, LFE
Sampling rate: 48.0 KHz
Resolution: 24 bits
Video delay: -648ms
Stream size: 108 MiB (11%)

Text
ID: 32 (0x20)
Format: RLE
Format/Info: Run-length encoding

Menu
Format: DVD-Video

Кинонаграды «MTV-Россия», 2007 год
Номинации (1):
* Лучшая комедийная роль (Гоша Куценко)

* Фильм полностью снят в Крыму, съемки проходили в Балаклаве, Симеизе, Гурзуфе, Алупке и в заповеднике «Мыс Айя».
Рабочее название фильма - «Край лета».
* В фильме состоялся дебют студентов Щукинского театрального училища Тихона Жизневского и Анны Небогатовой.

Сценарий: Виктор Шамиров
Продюсер: Виктор Пискунов, Гоша Куценко, Олег Селистра, ...
Оператор: Денис Панов
Композитор: Максим Головин
Художник: Александр Душин, Константин Мельников, Константин Витавский, ...
Монтаж: Дмитрий Слобцов
Бюджет: $800 000
Сборы в России: $1 328 612
Премьера (РФ): 23 ноября 2006, «Централ Партнершип»























Поделиться:




реклама партнёра


Вернуться к началу
 Профиль Отправить личное сообщение  
 
   Похожие торренты   Автор   Торрент   Размер 
В этой теме нет новых непрочитанных сообщений. С 5 до 7. Время любовников / 5 to 7 (Виктор Левин) [Драма, Мелодрама, Комедия, 2014] WEBRip, dub [чистый звук]

Dracon

10 | 2

1.37 ГБ

В этой теме нет новых непрочитанных сообщений. С 5 до 7. Время любовников / 5 to 7 (Виктор Левин) [Драма, Мелодрама, Комедия, 2014] WEB-DL 720p, dub [чистый звук]

Dracon

60 | 6

2.42 ГБ

В этой теме нет новых непрочитанных сообщений. Дикари на улицах / Wild in the Streets [фантастика, драма, 1968] HDTV 1080i, Dvo

salma3

4 | 3

4.2 ГБ

В этой теме нет новых непрочитанных сообщений. Маленькие дикари / Little Savages [семейный, 2016] DVDRip, Mvo

salma3

113 | 18

1.46 ГБ

В этой теме нет новых непрочитанных сообщений. Дикари [2013 г., Big tits, Masturbation, Pissing, CamRip]

Dievas

6 | 1

61.89 МБ

В этой теме нет новых непрочитанных сообщений. Простая история (Виктор Татарский) [2016, Боевик, военный, драма, мелодрама, WEB-DLRip]

marya111

1881 | 65

1.37 ГБ

В этой теме нет новых непрочитанных сообщений. Моя невеста из Болливуда / My Bollywood Bride [Драма, мелодрама, комедия, 2006] DVDRip, Dvo

salma3

33 | 7

1.37 ГБ


Начать новую тему Ответить на тему  [ 1 сообщение ] 




Для Мосгорсуда, Роскомнадзора и рекламодателей:: mosgorsud-torrent[собачка]yandex.ru