Торрент файл
скачать торрент магнет ссылка Добавлен: 07 янв 2012, 19:16
Размер: 6.05 ГБ
Сидеров: 0
Личеров: 14
Автор

СообщениеДобавлено: 07 янв 2012, 19:16 

Не в сети
Супермодератор
Аватара пользователя
Дата регистрации:
11 апр 2010, 18:10
Спасибо: 5799 / 7
Сообщения: 56779
Эльдорадо : В поисках Храма Солнца [сериал, 1 часть]/ El Dorado

Перевод: Профессиональный (многоголосый, закадровый)
Субтитры: Русские
Формат: DVD9, DVD Video, MPEG2, AC3
Страна: Перу
Режиссер: Терри Каннингэм
Жанр: Приключения
Продолжительность: 01:45:24
Год выпуска: 2010

В ролях: Шэйн Уэст, Люк Госс,Натали Мартинез, Элден Хенсон, Хулио Оскар Мечосо, Daniel Marin-Muller

Описание: Сокровища Эльдорадо притягивают искателей приключений со всего мира.Вот и Джек Уайлдер, археолог, всю жизнь мечтавший найти это мифическое место, отправляется на поиски золотого города инков. Правда, для того,чтобы узнать путь к Эльдорадо, ему необходимо найти и расшифровать календарь инков, находящийся в храме Солнца. Дорога туда окажется непростой.

Рейтинг на КиноПоиск: 6.000 (90)
Рейтинг на IMDb: 4.4/10

Видео: 720X576 (PAL 4:3), 25.000fps, MPEG-2 Video, ~ 8 000Kbps avg
Аудио#1: Русский 48.0KHz, AC-3, 6 ch, ~ 448Kbps avg[Профессиональный (многоголосый, закадровый)]
Аудио#2: Английский 48.0KHz, AC-3, 6 ch, ~ 448Kbps avg[Оригинал]

Меню:Анимированное / озвученное


Трейлер к фильму

Complete name: D:\загрузка\El_Dorado_[tfile.ru]\VIDEO_TS\VTS_05_3.VOB
Format: MPEG-PS
File size: 1 024 MiB
Duration: 18mn 23s
Overall bit rate: 7 784 Kbps

Video
ID: 224 (0xE0)
Format: MPEG Video
Format version: Version 2
Format profile: Main@Main
Format settings, Matrix: Default
Duration: 18mn 22s
Bit rate mode: Variable
Bit rate: 6 579 Kbps
Nominal bit rate: 8 000 Kbps
Width: 720 pixels
Height: 576 pixels
Display aspect ratio: 4/3
Frame rate: 25.000 fps
Standard: PAL
Colorimetry: 4:2:0
Scan type: Interlaced
Scan order: Top Field First
Bits/(Pixel*Frame): 0.635
Stream size: 865 MiB (84%)

Audio #1
ID: 128 (0x80)
Format: AC-3
Format/Info: Audio Coding 3
Duration: 18mn 23s
Bit rate mode: Constant
Bit rate: 448 Kbps
Channel(s): 6 channels
Channel positions: Front: L C R, Surround: L R, LFE
Sampling rate: 48.0 KHz
Video delay: -840ms
Stream size: 58.9 MiB (6%)

Audio #2
ID: 129 (0x81)
Format: AC-3
Format/Info: Audio Coding 3
Duration: 18mn 23s
Bit rate mode: Constant
Bit rate: 448 Kbps
Channel(s): 6 channels
Channel positions: Front: L C R, Surround: L R, LFE
Sampling rate: 48.0 KHz
Video delay: -840ms
Stream size: 58.9 MiB (6%)

Text
ID: 32 (0x20)
Format: RLE
Format/Info: Run-length encoding
Video delay: -840ms

Menu
Format: DVD-Video

Продюсер: Osama Bastaki, Фрэнк Р. Гарднер, Джордж Шэмайэ
Оператор: Джон П. Тарвер
Композитор: Джэми Кристоферсон
Монтаж: Бретт Хедлунд
Премьера (РФ): 2 сентября 2010
Релиз на DVD: 2 ноября 2010, «CP-Digital», ...

























Поделиться:




реклама партнёра


Вернуться к началу
 Профиль Отправить личное сообщение  
 
   Похожие торренты   Автор   Торрент   Размер 
В этой теме нет новых непрочитанных сообщений. В поисках Дори / Finding Dory (Мультфильм, комедия, приключения, семейный, 2016) DVD9 | Custom

marya111

29 | 18

6.39 ГБ

В этой теме нет новых непрочитанных сообщений. Всадники солнца / Raiders of the Sun [Фантастика, боевик, приключения, 1992] DVDRip, Avo

salma3

3 | 3

1.46 ГБ

В этой теме нет новых непрочитанных сообщений. Против солнца / Against the Sun (Брайан Питер Фальк) [приключения, драма, 2014] WEB-DL 720p, avo+sub

Dracon

7 | 2

3.28 ГБ

В этой теме нет новых непрочитанных сообщений. Против солнца / Against the Sun (Брайан Питер Фальк) [приключения, драма, 2014] WEB-DLRip, avo

Dracon

4 | 4

1.29 ГБ

В этой теме нет новых непрочитанных сообщений. Пленники солнца / Prisoners of the Sun [Ужасы, боевик, детектив, приключения, 2013] HDRip, Mvo

Dracon

0 | 2

1.45 ГБ

В этой теме нет новых непрочитанных сообщений. Против солнца / Against the Sun (Брайан Питер Фальк) [приключения, драма, 2014] WEB-DL 720p, dvo

Dracon

104 | 3

2.92 ГБ

В этой теме нет новых непрочитанных сообщений. Против солнца / Against the Sun (Брайан Питер Фальк) [приключения, драма, 2014] WEB-DLRip, dvo

Dracon

479 | 12

1.37 ГБ


Начать новую тему Ответить на тему  [ 1 сообщение ] 




Для Мосгорсуда, Роскомнадзора и рекламодателей:: mosgorsud-torrent[собачка]yandex.ru