Торрент файл
скачать торрент магнет ссылка Добавлен: 07 янв 2012, 19:16
Размер: 5.28 ГБ
Сидеров: 1
Личеров: 3
Автор

СообщениеДобавлено: 07 янв 2012, 19:16 

Не в сети
Супермодератор
Аватара пользователя
Дата регистрации:
11 апр 2010, 18:10
Спасибо: 5799 / 7
Сообщения: 56779
Эльдорадо: Дорога к золотому городу [сериал, 2 часть] / El Dorado

Перевод: Профессиональный (многоголосый, закадровый)
Субтитры: Русские
Формат: DVD9, DVD Video, MPEG2, AC3
Страна: Перу
Режиссер: Терри Каннингэм
Жанр: Приключения
Продолжительность: 01:29:35
Год выпуска: 2010

В ролях: Шэйн Уэст, Люк Госс,Натали Мартинез, Элден Хенсон, Хулио Оскар Мечосо, Daniel Marin-Muller

Описание: Джек Уайлдер - гениальный археолог, он - единственный, кто сумел найти дорогу к золотому городу Эльдорадо. Этому предшествовала опасная для жизни "игра" с многочисленными преследователями, по пятам сопровождавшими его на всем пути. Для людей, маниакально стремящихся овладеть богатством, Эльдорадо стал золотой могилой. Для Джека Уайлдераи и его друзей - потаенный город инков превратился в сбывшуюся мечту.

Рейтинг на КиноПоиск: 6.000 (90)
Рейтинг на IMDb: 4.4/10

Видео: 720X576 (PAL 4:3), 25.000fps, MPEG-2 Video, ~ 8 000Kbps avg
Аудио#1: Русский 48.0KHz, AC-3, 6 ch, ~ 448Kbps avg[Профессиональный (многоголосый, закадровый)]
Аудио#2: Английский 48.0KHz, AC-3, 6 ch, ~ 448Kbps avg[Оригинал]

Меню:Анимированное / озвученное



Трейлер к фильму

General
Complete name: D:\загрузка\el_dorado_2_[tfile.ru]\VIDEO_TS\VTS_05_3.VOB
Format: MPEG-PS
File size: 1 024 MiB
Duration: 20mn 21s
Overall bit rate: 7 029 Kbps

Video
ID: 224 (0xE0)
Format: MPEG Video
Format version: Version 2
Format profile: Main@Main
Format settings, Matrix: Default
Duration: 20mn 21s
Bit rate mode: Variable
Bit rate: 5 854 Kbps
Nominal bit rate: 8 000 Kbps
Width: 720 pixels
Height: 576 pixels
Display aspect ratio: 4/3
Frame rate: 25.000 fps
Standard: PAL
Colorimetry: 4:2:0
Scan type: Interlaced
Scan order: Top Field First
Bits/(Pixel*Frame): 0.565
Stream size: 852 MiB (83%)

Audio #1
ID: 128 (0x80)
Format: AC-3
Format/Info: Audio Coding 3
Duration: 20mn 21s
Bit rate mode: Constant
Bit rate: 448 Kbps
Channel(s): 6 channels
Channel positions: Front: L C R, Surround: L R, LFE
Sampling rate: 48.0 KHz
Video delay: -848ms
Stream size: 65.3 MiB (6%)

Audio #2
ID: 129 (0x81)
Format: AC-3
Format/Info: Audio Coding 3
Duration: 20mn 21s
Bit rate mode: Constant
Bit rate: 448 Kbps
Channel(s): 6 channels
Channel positions: Front: L C R, Surround: L R, LFE
Sampling rate: 48.0 KHz
Video delay: -848ms
Stream size: 65.3 MiB (6%)

Text
ID: 32 (0x20)
Format: RLE
Format/Info: Run-length encoding
Video delay: -848ms

Menu
Format: DVD-Video

Продюсер: Osama Bastaki, Фрэнк Р. Гарднер, Джордж Шэмайэ
Оператор: Джон П. Тарвер
Композитор: Джэми Кристоферсон
Монтаж: Бретт Хедлунд
Премьера (РФ): 2 сентября 2010
Релиз на DVD: 2 ноября 2010, «CP-Digital», ...

























Поделиться:




реклама партнёра


Вернуться к началу
 Профиль Отправить личное сообщение  
 
   Похожие торренты   Автор   Торрент   Размер 
В этой теме нет новых непрочитанных сообщений. Запретная дорога / Заповедная дорога / Reservation Road [Триллер, драма, криминал, 2007] HDRip, Mvo

salma3

77 | 6

1.46 ГБ

В этой теме нет новых непрочитанных сообщений. Босиком по городу / Barefoot [драма, мелодрама, комедия, 2014] DVD5, Mvo [Лицензия]

Dracon

3 | 3

4.03 ГБ

В этой теме нет новых непрочитанных сообщений. Дорога / Camino [боевик, триллер, приключения, 2015] WEBDLRip, Dvo

salma3

43 | 2

1.46 ГБ

В этой теме нет новых непрочитанных сообщений. Дорога в ад / Highway to Hell [ужасы, фэнтези, комедия, приключения, 1991] BDRip, Mvo+Avo

salma3

209 | 23

1.46 ГБ

В этой теме нет новых непрочитанных сообщений. Безумный Макс: Дорога ярости / Mad Max: Fury Road [Боевик, триллер, приключения, 2015] HD 720p, Dub [Трейлер]

salma3

691 | 16

38.12 МБ

В этой теме нет новых непрочитанных сообщений. Безумный Макс: Дорога ярости / Mad Max: Fury Road (Джордж Миллер) [фантастика, боевик, триллер, приключения, 2015] WEB-DLRip, avo

Dracon

7 | 0

1.41 ГБ

В этой теме нет новых непрочитанных сообщений. Безумный Макс: Дорога ярости / Mad Max: Fury Road (Джордж Миллер) [фантастика, боевик, триллер, приключения, 2015] WEB-DL 720p, avo

Dracon

2 | 0

3.69 ГБ


Начать новую тему Ответить на тему  [ 1 сообщение ] 




Для Мосгорсуда, Роскомнадзора и рекламодателей:: mosgorsud-torrent[собачка]yandex.ru