Торрент файл
скачать торрент магнет ссылка Добавлен: 07 янв 2012, 19:15
Размер: 6.7 ГБ
Сидеров: 2
Личеров: 4
Автор

СообщениеДобавлено: 07 янв 2012, 19:15 

Не в сети
Супермодератор
Аватара пользователя
Дата регистрации:
11 апр 2010, 18:10
Спасибо: 5801 / 7
Сообщения: 56779
Оторва / Wild Child

Перевод: Профессиональный (полное дублирование)
Субтитры: Английские, чешские, польские, болгарские, египетские, румынские, украинские
Формат: DVD9, DVD Video, MPEG2, AC3
Страна: США, Франция, Великобритания
Режиссер: Ник Мур
Жанр: Драма, комедия
Продолжительность: 01:34:24
Год выпуска: 2008

В ролях: Эмма Робертс, Лекси Эйнсуорт, Шелби Янг, Джонни Пакар, Эйдан Куинн, Наташа Ричардсон, Джорджия Кинг, Элинор Тернер-Мосс, Руби Томас, Кимберли Никсон ...

Роли дублировали: Лина Иванова, Всеволод Кузнецов, Ольга Зубкова, Наталья Фищук, Михаил Тихонов ...

Описание: Шестнадцатилетняя Поппи Мур — избалованная, самовлюбленная девчонка из богатой семьи, живущая в Лос-Анджелесе. Когда очередная вечеринка завершается скандалом, отец отправляет Поппи в английскую школу, чтобы привести дочь в чувство. Девушка рвется на свободу и делает все, чтобы ее исключили, но британским школьницам учителям не так-то просто противостоять. Наконец, Поппи становится ясно, что плохое поведение ей не поможет, и вместе с новыми подругами она разрабатывает идеальный план побега. Но именно благодаря этому плану она понимает, что, возможно, хочет остаться…

Рейтинг на КиноПоиск: 6.970 (7 850)
Рейтинг на IMDb: 5.8/10
Рейтинг MPAA: PG-13

Видео: 720X576 (PAL 16:9), 25.000fps, MPEG-2 Video, ~ 9 800Kbps avg
Аудио#1: Английский 48.0KHz, AC-3, 6 ch, ~ 384Kbps avg[Оригинал]
Аудио#2: Русский 48.0KHz, AC-3, 6 ch, ~ 384Kbps avg[Профессиональный (полное дублирование)]
Аудио#2: Чешский 48.0KHz, AC-3, 6 ch, ~ 384Kbps avg
Аудио#4: Польский 48.0KHz, AC-3, 6 ch, ~ 384Kbps avg



Трейлер к фильму
Слоган:«Новая ученица, новая школа, новые правила.»

General
Complete name: D:\загрузка\wild_child_[tfile.ru]\VIDEO_TS\VTS_01_3.VOB
Format: MPEG-PS
File size: 1 024 MiB
Duration: 17mn 28s
Overall bit rate: 8 192 Kbps

Video
ID: 224 (0xE0)
Format: MPEG Video
Format version: Version 2
Format profile: Main@Main
Format settings, Matrix: Default
Duration: 17mn 28s
Bit rate mode: Variable
Bit rate: 6 331 Kbps
Nominal bit rate: 9 800 Kbps
Width: 720 pixels
Height: 576 pixels
Display aspect ratio: 16/9
Frame rate: 25.000 fps
Standard: PAL
Colorimetry: 4:2:0
Scan type: Interlaced
Scan order: Top Field First
Bits/(Pixel*Frame): 0.611
Stream size: 791 MiB (77%)

Audio #1
ID: 128 (0x80)
Format: AC-3
Format/Info: Audio Coding 3
Duration: 17mn 28s
Bit rate mode: Constant
Bit rate: 384 Kbps
Channel(s): 6 channels
Channel positions: Front: L C R, Surround: L R, LFE
Sampling rate: 48.0 KHz
Video delay: -264ms
Stream size: 48.0 MiB (5%)

Audio #2
ID: 129 (0x81)
Format: AC-3
Format/Info: Audio Coding 3
Duration: 17mn 28s
Bit rate mode: Constant
Bit rate: 384 Kbps
Channel(s): 6 channels
Channel positions: Front: L C R, Surround: L R, LFE
Sampling rate: 48.0 KHz
Video delay: -264ms
Stream size: 48.0 MiB (5%)

Audio #3
ID: 130 (0x82)
Format: AC-3
Format/Info: Audio Coding 3
Duration: 17mn 28s
Bit rate mode: Constant
Bit rate: 384 Kbps
Channel(s): 6 channels
Channel positions: Front: L C R, Surround: L R, LFE
Sampling rate: 48.0 KHz
Video delay: -264ms
Stream size: 48.0 MiB (5%)

Audio #4
ID: 131 (0x83)
Format: AC-3
Format/Info: Audio Coding 3
Duration: 17mn 28s
Bit rate mode: Constant
Bit rate: 384 Kbps
Channel(s): 6 channels
Channel positions: Front: L C R, Surround: L R, LFE
Sampling rate: 48.0 KHz
Video delay: -264ms
Stream size: 48.0 MiB (5%)

Text #1
ID: 32 (0x20)
Format: RLE
Format/Info: Run-length encoding

Text #2
ID: 33 (0x21)
Format: RLE
Format/Info: Run-length encoding

Text #3
ID: 34 (0x22)
Format: RLE
Format/Info: Run-length encoding

Text #4
ID: 35 (0x23)
Format: RLE
Format/Info: Run-length encoding

Text #5
ID: 36 (0x24)
Format: RLE
Format/Info: Run-length encoding

Text #6
ID: 37 (0x25)
Format: RLE
Format/Info: Run-length encoding

Text #7
ID: 38 (0x26)
Format: RLE
Format/Info: Run-length encoding

Menu
Format: DVD-Video
Сценарий: Люси Даль
Продюсер: Тим Беван, Эрик Феллнер, Александра Фергюсон, ...
Оператор: Крис Сигер
Композитор: Майкл Прайс
Художник: Ив Стюарт, Джулия Кэстон, Роберт Вишхасен-Хейс
Монтаж: Саймон Козенс
Бюджет: $20 000 000
Сборы в США: $19 780
Сборы в мире: + $21 273 322 = $21 293 102
Зрители: Нидерланды178.5 тыс.
Премьера (мир): 14 августа 2008
Релиз на Blu-Ray: 1 февраля 2011, «Юниверсал Пикчерс Рус», ...
Релиз на DVD: 16 декабря 2008, «Юниверсал Пикчерс Рус», ...





























Поделиться:




реклама партнёра


Вернуться к началу
 Профиль Отправить личное сообщение  
 
   Похожие торренты   Автор   Торрент   Размер 
В этой теме нет новых непрочитанных сообщений. Tyler Bryant & The Shakedown - Wild Child [2013, Southern Hard Rock, MP3]

PriZraK

0 | 1

98.27 МБ

В этой теме нет новых непрочитанных сообщений. Love Child - Love Child [1994, Melodic Hard Rock, MP3]

PriZraK

0 | 1

116.55 МБ

В этой теме нет новых непрочитанных сообщений. Scorpion Child - Scorpion Child [2013, Hard Rock, MP3]

PriZraK

2 | 2

128.46 МБ

В этой теме нет новых непрочитанных сообщений. Настоящая оторва [2016 г., Amateur, Homemade, All Sex., CamRip]

Dievas

5 | 1

67.21 МБ

В этой теме нет новых непрочитанных сообщений. Трудный ребенок / Problem Child [комедия, семейный, 1990] WEB-DL 720p, Mvo+Sub

salma3

15 | 2

2.74 ГБ

В этой теме нет новых непрочитанных сообщений. Трудный ребенок 2 / Problem Child 2 [комедия, семейный, 1991] WEB-DL 720p, Mvo+Sub

salma3

15 | 2

2.88 ГБ

В этой теме нет новых непрочитанных сообщений. Молодость по страховке / Wild Oats [боевик, драма, комедия, 2015] WEB-DL 1080p, Dub [ iTunes]

salma3

1542 | 202

3.05 ГБ


Начать новую тему Ответить на тему  [ 1 сообщение ] 




Для Мосгорсуда, Роскомнадзора и рекламодателей:: mosgorsud-torrent[собачка]yandex.ru