Торрент файл
скачать торрент магнет ссылка Добавлен: 07 янв 2012, 19:15
Размер: 5.32 ГБ
Сидеров: 1
Личеров: 5
Автор

СообщениеДобавлено: 07 янв 2012, 19:15 

Не в сети
Супермодератор
Аватара пользователя
Дата регистрации:
11 апр 2010, 18:10
Спасибо: 5801 / 7
Сообщения: 56779
Убойные каникулы / Tucker & Dale vs Evil

Перевод: Профессиональный (полное дублирование)
Субтитры: Отсутствуют
Формат: DVD9, DVD Video, MPEG2, AC3
Страна: Канада
Режиссер: Эли Крэйг
Жанр: Ужасы, комедия
Продолжительность: 01:24:56
Год выпуска: 2010

В ролях: Тайлер Лэбин, Алан Тьюдик, Катрина Боуден, Джесси Мосс, Филип Грэйнджер, Брэндон Джей МакЛарен, Кристи Лэйн, Челан Симмонс, Трэвис Нельсон, Алекс Арсено ...

Роли дублировали: Пётр Иващенко, Алексей Багдасаров, Елена Чебатуркина, Григорий Калинин, Анна Котова ...

Описание: Группа студентов колледжа отправляется за город, чтобы вовсю оторваться на выходных: попить пивка, поплавать в озере и подышать чистым лесным воздухом. Но уже в первый день они сталкиваются с неотесанными фермерами Такером и Дэйлом, также решившими как следует оттянуться на природе. Приняв этих диковатых, но, в сущности, симпатичных ребят за «злобных местных», горожане решают дать деревенщине жесткий отпор. Но с каждым их шагом становится только хуже…

Рейтинг на КиноПоиск: 7.633 (10 567)
Рейтинг на IMDb: 8.1/10

Видео: 720X576 (PAL 16:9), 25.000fps, MPEG-2 Video, ~ 7 700Kbps avg
Аудио#1: Русский 48.0KHz, AC-3, 6 ch, ~ 448Kbps avg[Профессиональный (полное дублирование)]
Аудио#2: Русский 48.0KHz, DTS, 6 ch, ~ 1 510Kbps avg[Профессиональный (полное дублирование)]


Трейлер к фильму
Слоган:[font=Coo�t>Sans MS]«Куча жертв... ни одного маньяка»[/font]

General
Complete name: D:\загрузка\tucker_&_dale_vs_evil_[tfile.ru]\VIDEO_TS\VTS_03_3.VOB
Format: MPEG-PS
File size: 1 024 MiB
Duration: 16mn 49s
Overall bit rate: 8 512 Kbps

Video
ID: 224 (0xE0)
Format: MPEG Video
Format version: Version 2
Format profile: Main@Main
Format settings, Matrix: Default
Duration: 16mn 48s
Bit rate mode: Variable
Bit rate: 6 216 Kbps
Nominal bit rate: 7 700 Kbps
Width: 720 pixels
Height: 576 pixels
Display aspect ratio: 16/9
Frame rate: 25.000 fps
Standard: PAL
Colorimetry: 4:2:0
Scan type: Interlaced
Scan order: Top Field First
Bits/(Pixel*Frame): 0.600
Stream size: 748 MiB (73%)

Audio #1
ID: 128 (0x80)
Format: AC-3
Format/Info: Audio Coding 3
Duration: 16mn 49s
Bit rate mode: Constant
Bit rate: 448 Kbps
Channel(s): 6 channels
Channel positions: Front: L C R, Surround: L R, LFE
Sampling rate: 48.0 KHz
Video delay: -555ms
Stream size: 53.9 MiB (5%)

Audio #2
ID: 137 (0x89)
Format: DTS
Format/Info: Digital Theater Systems
Duration: 16mn 49s
Bit rate mode: Constant
Bit rate: 1 510 Kbps
Channel(s): 6 channels
Channel positions: Front: L C R, Surround: L R, LFE
Sampling rate: 48.0 KHz
Resolution: 24 bits
Video delay: -555ms
Stream size: 182 MiB (18%)

Menu
Format: DVD-Video
[font=Coo�t>Sans MS]
Сценарий: Морган Юргенсон, Эли Крэйг
Продюсер: Томас Огсбергер, Кроуфорд Хоукинс, Морган Юргенсон, ...
Оператор: Дэвид Геддес
Художник: Джон Блэкки, Мэри Хайд-Керр, Шон Блэкки, ...
Монтаж: Бриджет Дернфорд
Сборы в России: $2 991 947
Зрители: Россия505.5 тыс.
Премьера (мир): 26 сентября 2010
Премьера (РФ): 9 декабря 2010, «Вольга»
Релиз на DVD: 20 января 2011, «Вольга», ...
[/font]



















Поделиться:




реклама партнёра


Вернуться к началу
 Профиль Отправить личное сообщение  
 
   Похожие торренты   Автор   Торрент   Размер 
В этой теме нет новых непрочитанных сообщений. Зловещий Бонг 420 / Evil Bong 420 [ужасы, комедия, 2015] DVDRip, Dvo

salma3

300 | 6

1 ГБ

В этой теме нет новых непрочитанных сообщений. Последние каникулы 2 / Cabin Fever 2: Spring Fever [ужасы, триллер, комедия, 2009] HDRip, Mvo

salma3

126 | 20

701.67 МБ

В этой теме нет новых непрочитанных сообщений. Стэн против сил зла / Stan Against Evil [S01] [Ужасы, комедия, 2016] WEB-DL 720p, Mvo [NewStudio]

salma3

85 | 55

5.81 ГБ

В этой теме нет новых непрочитанных сообщений. Стэн против сил зла / Stan Against Evil [S01] [Ужасы, комедия, 2016] WEB-DLRip, Mvo [NewStudio]

salma3

259 | 153

2.34 ГБ

В этой теме нет новых непрочитанных сообщений. Спёкшийся против зловещего Бонга / Gingerdead Man Vs. Evil Bong [ужасы, комедия, 2013] DVDRip, Dvo

salma3

34 | 7

1.36 ГБ

В этой теме нет новых непрочитанных сообщений. Обитель зла 4: Жизнь после смерти / Resident Evil: Afterlife [боевик, ужасы, 2010] HDRip, Avo [Гаврилов]

salma3

18 | 4

1.46 ГБ

В этой теме нет новых непрочитанных сообщений. Ничего не вижу, ничего не слышу / See No Evil, Hear No Evil [боевик, триллер, комедия, криминал, 1989] BDRip 1080p, Mvo+Avo+Sub

salma3

26 | 7

7.76 ГБ


Начать новую тему Ответить на тему  [ 1 сообщение ] 




Для Мосгорсуда, Роскомнадзора и рекламодателей:: mosgorsud-torrent[собачка]yandex.ru