Торрент файл
скачать торрент магнет ссылка Добавлен: 07 янв 2012, 19:14
Размер: 13.12 ГБ
Сидеров: 3
Личеров: 7
Автор

СообщениеДобавлено: 07 янв 2012, 19:14 

Не в сети
Супермодератор
Аватара пользователя
Дата регистрации:
11 апр 2010, 18:10
Спасибо: 5802 / 7
Сообщения: 56779
Криминальное чтиво / Pulp Fiction


Перевод: Профессиональный (полное дублирование)
Субтитры:Русские, английские, украинские, итальянские, португальские, турецкие, арабские
Формат: 2xDVD9, DVD Video, MPEG2, AC3
Страна: США
Режиссер: Квентин Тарантино
Жанр: Криминальная драма
Продолжительность: 02:28:02
Год выпуска: 1994

В ролях: Джон Траволта, Сэмюэл Л. Джексон, Ума Турман, Харви Кейтель , Тим Рот, Аманда Пламмер, Эрик Штольц, Брюс Уиллис, Винг Рэймс, Фил ЛаМарр, Мария ди Медейрос,Розанна Аркетт

Описание: Двое бандитов Винсент Вега и Джулс Винфилд проводят время в философских беседах в перерыве между разборками и "решением проблем" с должниками своего криминального босса Марселласа Уоллеса. Параллельно разворачивается три истории.
В первой из них Винсент присматривает за женой Марселласа Мией и спасает ее от передозировки наркотиков. Во второй рассказывается о Бутче Кулидже, боксере, нанятом Уоллесом, чтобы сдать бой, но обманувшим его. Третья история объединяет первые две - в кафе парочка молодых неудачливых грабителей - Пампкин и Хани Бани делают попытку ограбления, но Джулс останавливает их…


Рейтинг IMDB: 8.9/10
Рейтинг Кинопоиск.RU: 8.687
Рейтинг MPAA: R

Видео: 720x576 (PAL 16:9), 25,000 fps, MPEG-2 Video, ~9800 Kbps avg
Аудио#1:Английский 48КГц, Dolby AC3, 6 ch, ~348 Kbps avg [Оригинал]
Аудио#2:Итальянский 48КГц, Dolby AC3, 6 ch, ~348 Kbps avg
Аудио#3:Турецкий48КГц, Dolby AC3, 6 ch, ~348 Kbps avg
Аудио#4:Русский 48КГц, Dolby AC3, 6 ch, ~348 Kbps avg [Профессиональный (полное дублирование) ]


Дополнительные материалы (перевод субтитрами)
DVD 1:
•"Главы саундтрека"" (песни из фильма)
DVD 2:
•Главы саундтрека
•Документальный фильм "Криминальное чтиво: Факты"
•Удаленные сцены
•Калейдоскоп из-за кулис
•Фильм о фильме
•Шоу Чарли Роуз
•Телевизионные обзоры
•Рецензии и статьи
•Галереи
•Ролики

Общее
Полное имя: D:\Pulp_Fiction\DVD1\VIDEO_TS\VTS_18_3.VOB
Формат: MPEG-PS
Размер файла: 1024 Мбайт
Общий поток: 0

Видео
Идентификатор: 224 (0xE0)
Формат: MPEG Video
Версия формата: Version 2
Профиль формата: Main@Main
Параметр BVOP формата: Да
Параметр матрицы формата: По умолчанию
Вид битрейта: Переменный
Номинальный битрейт: 9800 Кбит/сек
Ширина: 720 пикс.
Высота: 576 пикс.
Соотношение сторон: 16:9
Частота кадров: 25,000 кадр/сек
Стандарт вещания: PAL
Цветовое пространство: YUV
Подвыборка цветности: 4:2:0
Битовая глубина: 8 бит
Тип развёртки: Прогрессивная
Порядок развёртки: Верхнее поле первое
Метод сжатия: С потерями
Бит/(Пиксели*Кадры): 0.945

Аудио #1
Идентификатор: 128 (0x80)
Формат: AC-3
Формат/Информация: Audio Coding 3
Расширение режима: CM (complete main)
Продолжительность: -31 м.
Вид битрейта: Постоянный
Битрейт: 384 Кбит/сек
Канал(ы): 6 канала(ов)
Расположение каналов: Front: L C R, Side: L R, LFE
Частота: 48,0 КГц
Битовая глубина: 16 бит
Метод сжатия: С потерями
Задержка видео: -544 мс.
Размер потока: 2,05 ?iB

Аудио #2
Идентификатор: 129 (0x81)
Формат: AC-3
Формат/Информация: Audio Coding 3
Расширение режима: CM (complete main)
Продолжительность: -31 м.
Вид битрейта: Постоянный
Битрейт: 384 Кбит/сек
Канал(ы): 6 канала(ов)
Расположение каналов: Front: L C R, Side: L R, LFE
Частота: 48,0 КГц
Битовая глубина: 16 бит
Метод сжатия: С потерями
Задержка видео: -544 мс.
Размер потока: 2,05 ?iB

Аудио #3
Идентификатор: 130 (0x82)
Формат: AC-3
Формат/Информация: Audio Coding 3
Расширение режима: CM (complete main)
Продолжительность: -31 м.
Вид битрейта: Постоянный
Битрейт: 384 Кбит/сек
Канал(ы): 6 канала(ов)
Расположение каналов: Front: L C R, Side: L R, LFE
Частота: 48,0 КГц
Битовая глубина: 16 бит
Метод сжатия: С потерями
Задержка видео: -544 мс.
Размер потока: 2,05 ?iB

Аудио #4
Идентификатор: 131 (0x83)
Формат: AC-3
Формат/Информация: Audio Coding 3
Расширение режима: CM (complete main)
Продолжительность: -31 м.
Вид битрейта: Постоянный
Битрейт: 384 Кбит/сек
Канал(ы): 6 канала(ов)
Расположение каналов: Front: L C R, Side: L R, LFE
Частота: 48,0 КГц
Битовая глубина: 16 бит
Метод сжатия: С потерями
Задержка видео: -544 мс.
Размер потока: 2,05 ?iB

Текст #1
Идентификатор: 32 (0x20)
Формат: RLE
Формат/Информация: Run-length encoding
Задержка видео: 200 мс.

Текст #2
Идентификатор: 33 (0x21)
Формат: RLE
Формат/Информация: Run-length encoding
Задержка видео: 200 мс.

Текст #3
Идентификатор: 34 (0x22)
Формат: RLE
Формат/Информация: Run-length encoding
Задержка видео: 200 мс.

Текст #4
Идентификатор: 35 (0x23)
Формат: RLE
Формат/Информация: Run-length encoding
Задержка видео: 200 мс.

Текст #5
Идентификатор: 36 (0x24)
Формат: RLE
Формат/Информация: Run-length encoding
Задержка видео: 200 мс.

Текст #6
Идентификатор: 37 (0x25)
Формат: RLE
Формат/Информация: Run-length encoding
Задержка видео: 320 мс.

Текст #7
Идентификатор: 38 (0x26)
Формат: RLE
Формат/Информация: Run-length encoding
Задержка видео: 200 мс.

Текст #8
Идентификатор: 39 (0x27)
Формат: RLE
Формат/Информация: Run-length encoding
Задержка видео: 200 мс.

Меню

Общее
Полное имя: D:\Pulp_Fiction\DVD1\VIDEO_TS\VTS_18_4.VOB
Формат: MPEG-PS
Размер файла: 1024 Мбайт
Продолжительность: 20 м.
Общий поток: 6853 Кбит/сек

Видео
Идентификатор: 224 (0xE0)
Формат: MPEG Video
Версия формата: Version 2
Профиль формата: Main@Main
Параметр BVOP формата: Да
Параметр матрицы формата: По умолчанию
Продолжительность: 20 м.
Вид битрейта: Переменный
Битрейт: 5180 Кбит/сек
Номинальный битрейт: 9800 Кбит/сек
Ширина: 720 пикс.
Высота: 576 пикс.
Соотношение сторон: 16:9
Частота кадров: 25,000 кадр/сек
Стандарт вещания: PAL
Цветовое пространство: YUV
Подвыборка цветности: 4:2:0
Битовая глубина: 8 бит
Тип развёртки: Прогрессивная
Порядок развёртки: Верхнее поле первое
Метод сжатия: С потерями
Бит/(Пиксели*Кадры): 0.500
Размер потока: 774 Мбайт (76%)

Аудио #1
Идентификатор: 128 (0x80)
Формат: AC-3
Формат/Информация: Audio Coding 3
Расширение режима: CM (complete main)
Продолжительность: 20 м.
Вид битрейта: Постоянный
Битрейт: 384 Кбит/сек
Канал(ы): 6 канала(ов)
Расположение каналов: Front: L C R, Side: L R, LFE
Частота: 48,0 КГц
Битовая глубина: 16 бит
Метод сжатия: С потерями
Задержка видео: -384 мс.
Размер потока: 57,4 Мбайт (6%)

Аудио #2
Идентификатор: 129 (0x81)
Формат: AC-3
Формат/Информация: Audio Coding 3
Расширение режима: CM (complete main)
Продолжительность: 20 м.
Вид битрейта: Постоянный
Битрейт: 384 Кбит/сек
Канал(ы): 6 канала(ов)
Расположение каналов: Front: L C R, Side: L R, LFE
Частота: 48,0 КГц
Битовая глубина: 16 бит
Метод сжатия: С потерями
Задержка видео: -384 мс.
Размер потока: 57,4 Мбайт (6%)

Аудио #3
Идентификатор: 130 (0x82)
Формат: AC-3
Формат/Информация: Audio Coding 3
Расширение режима: CM (complete main)
Продолжительность: 20 м.
Вид битрейта: Постоянный
Битрейт: 384 Кбит/сек
Канал(ы): 6 канала(ов)
Расположение каналов: Front: L C R, Side: L R, LFE
Частота: 48,0 КГц
Битовая глубина: 16 бит
Метод сжатия: С потерями
Задержка видео: -384 мс.
Размер потока: 57,4 Мбайт (6%)

Аудио #4
Идентификатор: 131 (0x83)
Формат: AC-3
Формат/Информация: Audio Coding 3
Расширение режима: CM (complete main)
Продолжительность: 20 м.
Вид битрейта: Постоянный
Битрейт: 384 Кбит/сек
Канал(ы): 6 канала(ов)
Расположение каналов: Front: L C R, Side: L R, LFE
Частота: 48,0 КГц
Битовая глубина: 16 бит
Метод сжатия: С потерями
Задержка видео: -384 мс.
Размер потока: 57,4 Мбайт (6%)

Текст #1
Идентификатор: 32 (0x20)
Формат: RLE
Формат/Информация: Run-length encoding
Задержка видео: 1 с. 600 мс.

Текст #2
Идентификатор: 33 (0x21)
Формат: RLE
Формат/Информация: Run-length encoding
Задержка видео: 1 с. 600 мс.

Текст #3
Идентификатор: 34 (0x22)
Формат: RLE
Формат/Информация: Run-length encoding
Задержка видео: 1 с. 600 мс.

Текст #4
Идентификатор: 35 (0x23)
Формат: RLE
Формат/Информация: Run-length encoding
Задержка видео: 1 с. 600 мс.

Текст #5
Идентификатор: 36 (0x24)
Формат: RLE
Формат/Информация: Run-length encoding
Задержка видео: 1 с. 600 мс.

Текст #6
Идентификатор: 37 (0x25)
Формат: RLE
Формат/Информация: Run-length encoding
Задержка видео: 1 с. 560 мс.

Текст #7
Идентификатор: 38 (0x26)
Формат: RLE
Формат/Информация: Run-length encoding
Задержка видео: 1 с. 600 мс.

Текст #8
Идентификатор: 39 (0x27)
Формат: RLE
Формат/Информация: Run-length encoding
Задержка видео: 1 с. 600 мс.















Поделиться:




реклама партнёра


Вернуться к началу
 Профиль Отправить личное сообщение  
 
   Похожие торренты   Автор   Торрент   Размер 
В этой теме нет новых непрочитанных сообщений. Убойное чтиво / Stranger Than Fiction [триллер, комедия, 2000] DVDRip, Mvo

salma3

7 | 5

1.46 ГБ

В этой теме нет новых непрочитанных сообщений. Криминальное наследство [01-04 из 04] (Алексей Луканев) [Драма, криминал, 2014] HDTVRip 720p

Dracon

118 | 6

7.39 ГБ

В этой теме нет новых непрочитанных сообщений. Криминальное наследство [01-04 из 04] (Алексей Луканев) [Драма, криминал, 2014] HDTV 1080i

Dracon

49 | 6

14.41 ГБ

В этой теме нет новых непрочитанных сообщений. Криминальное наследство [Серии 1-4 из 4] (Алексей Луканев) [Криминал, 2015] SATRip

Dracon

3 | 0

2.42 ГБ

В этой теме нет новых непрочитанных сообщений. Sundowner - Neon Fiction [2013, Alt.Rock, MP3]

PriZraK

0 | 1

78.6 МБ

В этой теме нет новых непрочитанных сообщений. Nevertheless, Vain - Fictional Non-Fiction [2011, Metalcore, Experimental, MP3]

PriZraK

0 | 1

67.87 МБ

В этой теме нет новых непрочитанных сообщений. Approaching Fiction - Theleventhour [2013, Post-Hardcore, Alternative, MP3]

PriZraK

0 | 1

118.62 МБ


Начать новую тему Ответить на тему  [ 1 сообщение ] 




Для Мосгорсуда, Роскомнадзора и рекламодателей:: mosgorsud-torrent[собачка]yandex.ru