Торрент файл
скачать торрент магнет ссылка Добавлен: 07 янв 2012, 19:13
Размер: 7.19 ГБ
Сидеров: 0
Личеров: 4
Автор

СообщениеДобавлено: 07 янв 2012, 19:13 

Не в сети
Супермодератор
Аватара пользователя
Дата регистрации:
11 апр 2010, 18:10
Спасибо: 5801 / 7
Сообщения: 56779
Русский крест [4 из 4 серий]

Перевод: Не требуется
Субтитры: Отсутствуют
Формат: DVD9, DVD Video, MPEG2, AC3
Страна: Россия
Режиссер: Григорий Любомиров
Жанр: Драма, военный
Продолжительность:4x~00:47 (03:13:15)
Год выпуска: 2010

В ролях: Евгений Сидихин, Дмитрий Нагиев, Кирилл Нагиев, Дина Корзун, Артур Богданов, Лев Дуров, Сабрина Данченко, Марат Гибадуллин, Петр Зекавица, Анатолий Козырь ...

Описание: В июле 1941 в городишке Гдов Ленинградской области в НКВД содержится священник отец Александр, попавший туда за свои проповеди, в которых он рассказывал верующим о своем видении. Святые, якобы, молили Спасителя о том, чтобы Он не оставил Россию в начавшейся войне, но Спаситель отвечал, что в России так велика мерзость запустения, что невозможно больше терпеть эти беззакония, и война есть справедливая кара забывшей о Боге России. Из-за этих проповедей капитан госбезопасности Яковлев и обвиняет отца Александра в пособничестве наступающим немцам, что в тех условиях было равносильно смертному приговору.

Рейтинг на КиноПоиск: 4.667 (100)

Видео: 720X576 (PAL 4:3), 25.000fps, MPEG-2 Video, ~ 9 000Kbps avg
Аудио: Русский 48.0KHz, AC-3, 2 ch, ~ 192Kbps avg[Оригинал]

Меню: Анимированное/озвученное
Cлоган: Когда не остаётся надежды - спасает вера!»


General
Complete name: D:\загрузка\russkiy_krest_[tfile.ru]\VIDEO_TS\VTS_01_3.VOB
Format: MPEG-PS
File size: 1 024 MiB
Duration: 25mn 24s
Overall bit rate: 5 633 Kbps

Video
ID: 224 (0xE0)
Format: MPEG Video
Format version: Version 2
Format profile: Main@Main
Format settings, Matrix: Default
Duration: 25mn 24s
Bit rate mode: Variable
Bit rate: 5 217 Kbps
Nominal bit rate: 9 000 Kbps
Width: 720 pixels
Height: 576 pixels
Display aspect ratio: 4/3
Frame rate: 25.000 fps
Standard: PAL
Colorimetry: 4:2:0
Scan type: Interlaced
Scan order: Top Field First
Bits/(Pixel*Frame): 0.503
Stream size: 948 MiB (93%)

Audio
ID: 128 (0x80)
Format: AC-3
Format/Info: Audio Coding 3
Duration: 25mn 24s
Bit rate mode: Constant
Bit rate: 192 Kbps
Channel(s): 2 channels
Channel positions: L R
Sampling rate: 48.0 KHz
Video delay: -272ms
Stream size: 34.9 MiB (3%)

Menu
Format: DVD-Video

Сценарий: Григорий Любомиров
Продюсер: Григорий Любомиров
Оператор: Александр Шубин
Композитор: Андрей Абакумов
Релиз на DVD: 7 октября 2010, «Флагман-Трейд», ...

















Поделиться:




реклама партнёра


Вернуться к началу
 Профиль Отправить личное сообщение  
 
   Похожие торренты   Автор   Торрент   Размер 
В этой теме нет новых непрочитанных сообщений. Тройной крест / Triple cross [боевик, триллер, драма, приключения, военный, 1966] BDRip 1080p, Mvo+Avo

salma3

7 | 5

11.45 ГБ

В этой теме нет новых непрочитанных сообщений. Тройной крест / Triple cross [боевик, триллер, драма, приключения, военный, 1966] BDRip 720p, Mvo+Avo

salma3

5 | 5

5.08 ГБ

В этой теме нет новых непрочитанных сообщений. Единичка (Кирилл Белевич) [военный, драма, 2015] DVD9 [Лицензия]

Dracon

3 | 1

5.69 ГБ

В этой теме нет новых непрочитанных сообщений. Битва за Севастополь (Сергей Мокрицкий) [Военный, ВОВ, драма, реальные события, 2015] DVD9 [лицензия]

Dracon

18 | 2

6.8 ГБ

В этой теме нет новых непрочитанных сообщений. 13 часов: Тайные солдаты Бенгази / 13 Hours [боевик, триллер, драма, военный, 2016] DVD9, Dub [Лицензия]

salma3

33 | 10

7.35 ГБ

В этой теме нет новых непрочитанных сообщений. Григорий Р. / Распутин [01-08 из 08] [Драма, исторический, 2014] HDTV 720p

Dracon

439 | 33

12.45 ГБ

В этой теме нет новых непрочитанных сообщений. Григорий Р. / Распутин [01-08 из 08] [Драма, исторический, 2014] HDTV 1080i

Dracon

140 | 21

27.04 ГБ


Начать новую тему Ответить на тему  [ 1 сообщение ] 




Для Мосгорсуда, Роскомнадзора и рекламодателей:: mosgorsud-torrent[собачка]yandex.ru