Торрент файл
скачать торрент магнет ссылка Добавлен: 07 янв 2012, 19:12
Размер: 6.02 ГБ
Сидеров: 0
Личеров: 3
Автор

СообщениеДобавлено: 07 янв 2012, 19:12 

Не в сети
Супермодератор
Аватара пользователя
Дата регистрации:
11 апр 2010, 18:10
Спасибо: 5801 / 7
Сообщения: 56779
Неверный / The Infidel


Перевод: Профессиональный (многоголосый, закадровый)
Cубтитры: отсутствуют
Формат: DVD9, DVD Video, MPEG2, AC3
Страна: Великобритания
Режиссер: Джон Аппикнанеси
Жанр: комедия
Продолжительность: 01:40:36
Год выпуска: 2010

В ролях: Йигал Наор, Стюарт Скудамор, Омид Джалили, Джеймс Флойд, Арчи Панджаби, Стюарт Энтони, Скотт Уолтерс, Мина Анвар, Амит Шах

Описание: Махмуд Назир — счастливый отец семейства и владелец небольшой таксомоторной компании в Лондоне. Особой религиозностью никогда не отличался. Однако когда сын задумал жениться на девушке по имени Узма, мать которой вышла замуж за экстремистского исламского проповедника Аршада, Назир, чтобы не ударить лицом в грязь перед новой родней, решил показать себя правоверным мусульманином.
Но в тот же день на него обрушивается неожиданное известие: разбирая старые бумаги матери, он находит свидетельство об усыновлении. Оказывается, что Махмуд — урожденный еврей, и зовут его Соли Шимшиловиц!!!


Рейтинг IMDB: 6.3/10
Рейтинг Кинопоиск.RU: 8.138

Видео: 720x576 (PAL 16:9), 25,000 кадр/сек, MPEG2 Video, ~7216 Кбит/сек
Аудио#1:Русский AC3, 6ch, ~448 кбит/с [Профессиональный (многоголосый, закадровый)]
Аудио#2:Английский 48 kHz, AC3, 6ch, ~448 кбит/с[Оригинал]

Общее
Полное имя: C:\Documents and Settings\Admin.MICROSOF-68219C\Мои документы\Загрузки\Nevernij\VIDEO_TS\VTS_03_4.VOB
Формат: MPEG-PS
Размер файла: 1024 Мбайт
Продолжительность: 17 м.
Общий поток: 8277 Кбит/сек

Видео
Идентификатор: 224 (0xE0)
Формат: MPEG Video
Версия формата: Version 2
Профиль формата: Main@Main
Параметр BVOP формата: Да
Параметр матрицы формата: По умолчанию
Параметры GOP формата: M=3, N=12
Продолжительность: 17 м.
Вид битрейта: Переменный
Битрейт: 7216 Кбит/сек
Номинальный битрейт: 8800 Кбит/сек
Ширина: 720 пикс.
Высота: 576 пикс.
Соотношение сторон: 16:9
Частота кадров: 25,000 кадр/сек
Стандарт вещания: PAL
Цветовое пространство: YUV
Подвыборка цветности: 4:2:0
Битовая глубина: 8 бит
Тип развёртки: Чересстрочная
Порядок развёртки: Верхнее поле первое
Метод сжатия: С потерями
Бит/(Пиксели*Кадры): 0.696
Размер потока: 893 Мбайт (87%)

Аудио #1
Идентификатор: 128 (0x80)
Формат: AC-3
Формат/Информация: Audio Coding 3
Расширение режима: CM (complete main)
Продолжительность: 17 м.
Вид битрейта: Постоянный
Битрейт: 448 Кбит/сек
Канал(ы): 6 канала(ов)
Расположение каналов: Front: L C R, Side: L R, LFE
Частота: 48,0 КГц
Битовая глубина: 16 бит
Метод сжатия: С потерями
Задержка видео: -480 мс.
Размер потока: 55,4 Мбайт (5%)

Аудио #2
Идентификатор: 129 (0x81)
Формат: AC-3
Формат/Информация: Audio Coding 3
Расширение режима: CM (complete main)
Продолжительность: 17 м.
Вид битрейта: Постоянный
Битрейт: 448 Кбит/сек
Канал(ы): 6 канала(ов)
Расположение каналов: Front: L C R, Side: L R, LFE
Частота: 48,0 КГц
Битовая глубина: 16 бит
Метод сжатия: С потерями
Задержка видео: -480 мс.
Размер потока: 55,4 Мбайт (5%)

Текст
Идентификатор: 33 (0x21)
Формат: RLE
Формат/Информация: Run-length encoding
Продолжительность: 17 м.
Задержка видео: 1 с. 120 мс.









Поделиться:




реклама партнёра


Вернуться к началу
 Профиль Отправить личное сообщение  
 
   Похожие торренты   Автор   Торрент   Размер 
В этой теме нет новых непрочитанных сообщений. Неверный / The Infidel [Драма, комедия, 2010] ВDRip 720р, Dvo+Sub

salma3

93 | 32

7.05 ГБ

В этой теме нет новых непрочитанных сообщений. Возлюбленный язычник / Beloved Infidel [Драма, мелодрама, 1959] BDRip 1080p, Avo+Sub

salma3

1 | 3

12.78 ГБ

В этой теме нет новых непрочитанных сообщений. Возлюбленный язычник / Beloved Infidel [Драма, мелодрама, 1959] BDRip 720p, Avo+Sub

salma3

4 | 2

5.44 ГБ

В этой теме нет новых непрочитанных сообщений. Ёлки 3 [Комедия, 2013] DVD9 [Лицензия]

Dracon

2 | 3

6.18 ГБ

В этой теме нет новых непрочитанных сообщений. Друзья друзей [Комедия, 2013] DVD9 [Лицензия]

Dracon

10 | 3

4.81 ГБ

В этой теме нет новых непрочитанных сообщений. Собачий завтрак / A Dog's Breakfast [Комедия, 2007] DVD9, Dvo+Sub

salma3

13 | 3

6.57 ГБ

В этой теме нет новых непрочитанных сообщений. Мы – Миллеры / We're the Millers [Комедия, криминал, 2013] DVD9, Mvo+Avo+Sub

salma3

6 | 2

7.65 ГБ


Начать новую тему Ответить на тему  [ 1 сообщение ] 




Для Мосгорсуда, Роскомнадзора и рекламодателей:: mosgorsud-torrent[собачка]yandex.ru