Торрент файл
скачать торрент магнет ссылка Добавлен: 07 янв 2012, 19:12
Размер: 7.7 ГБ
Сидеров: 6
Личеров: 4
Автор

СообщениеДобавлено: 07 янв 2012, 19:12 

Не в сети
Супермодератор
Аватара пользователя
Дата регистрации:
11 апр 2010, 18:10
Спасибо: 5960 / 7
Сообщения: 56765
Не скажу


Перевод: Не требуется
Субтитры: Отсутсвуют
Формат: DVD9, DVD Video, MPEG2, AC3, DTS
Страна: Россия
Режиссер: Игорь Копылов
Жанр: драма
Продолжительность: 01:46:43
Год выпуска: 2010

В ролях: Максим Матвеев, Елизавета Боярская, Сергей Скоморохов, Александр Кобзарь, Виктор Щур

Описание: «Не скажу» — история, которая могла бы произойти в любом городе и с кем угодно. В главных героях мы узнаем себя. Не забыли ли они, что самое важное в нашей жизни — уметь любить и уметь распорядиться своей любовью, которая порой оказывается чувством столь сильным, что ведёт к Смерти? Стоит оступиться, и счастье, казавшееся прочным и нерушимым, рассыплется, словно небрежно построенный карточный домик.

Рейтинг на IMDB: 6.0/10
Рейтинг КиноПоиск.RU: 5.123

Видео: 720x576 (PAL 4:3), 25,000 fps, MPEG-2 Video ~8000 kbps avg
Аудио #1: Русский: 48 kHz, AC3 Dolby Digital, 6 ch, ~ 448 kbps avg
Аудио #2: Русский: 48 kHz, DTS Dolby Digital, 6 ch, ~ 755 kbps avg

Доп.информация: [ Лицензионное издание "CP Digital"]
Meню озвученное, частично анимированное, на русском языке, с навигацией по эпизодам. Все кнопки функциональны.


Общее
Полное имя: D:\DVD\Не скажу\VIDEO_TS\VTS_04_3.VOB
Формат: MPEG-PS
Размер файла: 1024 Мбайт
Продолжительность: 19 м.
Общий поток: 7340 Кбит/сек

Видео
Идентификатор: 224 (0xE0)
Формат: MPEG Video
Версия формата: Version 2
Профиль формата: Main@Main
Параметр BVOP формата: Да
Параметр матрицы формата: По умолчанию
Продолжительность: 19 м.
Вид битрейта: Переменный
Битрейт: 5991 Кбит/сек
Номинальный битрейт: 8000 Кбит/сек
Ширина: 720 пикс.
Высота: 576 пикс.
Соотношение сторон: 4:3
Частота кадров: 25,000 кадр/сек
Стандарт вещания: PAL
Цветовое пространство: YUV
Подвыборка цветности: 4:2:0
Битовая глубина: 8 бит
Тип развёртки: Чересстрочная
Порядок развёртки: Верхнее поле первое
Метод сжатия: С потерями
Бит/(Пиксели*Кадры): 0.578
Размер потока: 836 Мбайт (82%)

Аудио #1
Идентификатор: 128 (0x80)
Формат: AC-3
Формат/Информация: Audio Coding 3
Расширение режима: CM (complete main)
Продолжительность: 19 м.
Вид битрейта: Постоянный
Битрейт: 448 Кбит/сек
Канал(ы): 6 канала(ов)
Расположение каналов: Front: L C R, Side: L R, LFE
Частота: 48,0 КГц
Битовая глубина: 16 бит
Метод сжатия: С потерями
Задержка видео: -272 мс.
Размер потока: 62,5 Мбайт (6%)

Аудио #2
Идентификатор: 137 (0x89)
Формат: DTS
Формат/Информация: Digital Theater Systems
Продолжительность: 19 м.
Вид битрейта: Постоянный
Битрейт: 755 Кбит/сек
Канал(ы): 6 канала(ов)
Расположение каналов: Front: L C R, Side: L R, LFE
Частота: 48,0 КГц
Битовая глубина: 24 бит
Метод сжатия: С потерями
Задержка видео: -315 мс.
Размер потока: 105 Мбайт (10%)



















Поделиться:




реклама партнёра


Вернуться к началу
 Профиль Отправить личное сообщение  
 
   Похожие торренты   Автор   Торрент   Размер 
В этой теме нет новых непрочитанных сообщений. Ленинград 46 [01-32 из 32] (Игорь Копылов) [Драма, 2015] DVB

Dracon

170 | 102

30.67 ГБ

В этой теме нет новых непрочитанных сообщений. Ленинград 46 [01-32 из 32 + послесловие] (Игорь Копылов) [Драма, 2015] SATRip

Dracon

187 | 315

17.75 ГБ

В этой теме нет новых непрочитанных сообщений. Ленинград 46 (Сезон 1, ЧСерия 1-16 из 32) (Игорь Копылов) [2015, Военная Драма,HDTVRip-AVC 1080p ]

Враг Нароода

В этой теме нет новых непрочитанных сообщений. Одессит [Серия 1-4 из 4] (Игорь Копылов) [боевик, криминал, 2013] HDTVRip

Dracon

0 | 2

2.15 ГБ

В этой теме нет новых непрочитанных сообщений. Ленинград 46 [01-32 из 32] (Игорь Копылов) [Детектив, боевик, криминал, 2014] HDTVRip

Dracon

463 | 478

20.6 ГБ

В этой теме нет новых непрочитанных сообщений. Ленинград 46 [01-32 из 32] (Игорь Копылов) [Детектив, боевик, криминал, 2014] HDTV 1080i

Dracon

112 | 302

93.26 ГБ

В этой теме нет новых непрочитанных сообщений. Ленинград 46 [01-32 из 32] (Игорь Копылов) [Детектив, боевик, криминал, 2014] HDTVRip 720p

Dracon

213 | 619

49.73 ГБ


Начать новую тему Ответить на тему  [ 1 сообщение ] 




Для Мосгорсуда, Роскомнадзора и рекламодателей:: mosgorsud-torrent[собачка]yandex.ru