Торрент файл
скачать торрент магнет ссылка Добавлен: 07 янв 2012, 19:12
Размер: 6.67 ГБ
Сидеров: 0
Личеров: 4
Автор

СообщениеДобавлено: 07 янв 2012, 19:12 

Не в сети
Супермодератор
Аватара пользователя
Дата регистрации:
11 апр 2010, 18:10
Спасибо: 5801 / 7
Сообщения: 56779
В электрическом тумане / In the Electric Mist


Перевод: Профессиональный (многоголосый, закадровый)
Субтитры: Русские
Формат: DVD9, DVD Video, MPEG2, AC3, DTS
Страна: США, Франция
Режиссер: Бертран Тавернье
Жанр: триллер, драма, криминал, детектив
Продолжительность: 01:52:25
Год выпуска: 2009

В ролях: Томми Ли Джонс, Джон Гудмен, Питер Сарсгаард, Мэри Стинберген, Келли Макдоналд, Жустина Мачадо, Нед Битти, Джеймс Гэммон, Прюитт Тэйлор Винс, Левон Хельм

Описание: Детектив Дэйв Робишо пытается связать убийство мелкого местного воришки и видного гангстера из Нового Орлеана. Расследуя это дело, он мистическим образом несколько раз сталкивается с солдатом-конфедератом, участником гражданской войны в США.

Рейтинг на IMDB: 6.1/10
Рейтинг МРАА: R
Рейтинг КиноПоиск.RU: 5.395

Видео: 720x576 (PAL 4:3), 25,000 fps, MPEG-2 Video ~ 8000 kbps avg
Аудио #1: Русский: 48 kHz, AC3 Dolby Digital, 6 ch, ~ 448 kbps avg [Профессиональный (многоголосый, закадровый)]
Аудио #2: Английский: 48 kHz, AC3 Dolby Digital, 6 ch, ~ 448 kbps avg [Оригинал]
Аудио #3: Русский: 48 kHz, DTS Dolby Digital, 6 ch, ~755 kbps avg [Профессиональный (многоголосый, закадровый)]

Доп.информация: [ Лицензионное издание "CP Digital"]
Meню озвученное, частично анимированное, на русском языке, с навигацией по эпизодам. Все кнопки функциональны.


Общее
Полное имя: D:\DVD\В электрическом тумане\VIDEO_TS\VTS_05_3.VOB
Формат: MPEG-PS
Размер файла: 1024 Мбайт
Продолжительность: 18 м.
Общий поток: 7801 Кбит/сек

Видео
Идентификатор: 224 (0xE0)
Формат: MPEG Video
Версия формата: Version 2
Профиль формата: Main@Main
Параметр BVOP формата: Да
Параметр матрицы формата: По умолчанию
Параметры GOP формата: M=3, N=15
Продолжительность: 18 м.
Вид битрейта: Переменный
Битрейт: 5995 Кбит/сек
Номинальный битрейт: 8000 Кбит/сек
Ширина: 720 пикс.
Высота: 576 пикс.
Соотношение сторон: 4:3
Частота кадров: 25,000 кадр/сек
Стандарт вещания: PAL
Цветовое пространство: YUV
Подвыборка цветности: 4:2:0
Битовая глубина: 8 бит
Тип развёртки: Чересстрочная
Порядок развёртки: Верхнее поле первое
Метод сжатия: С потерями
Бит/(Пиксели*Кадры): 0.578
Размер потока: 787 Мбайт (77%)

Аудио #1
Идентификатор: 128 (0x80)
Формат: AC-3
Формат/Информация: Audio Coding 3
Расширение режима: CM (complete main)
Продолжительность: 18 м.
Вид битрейта: Постоянный
Битрейт: 448 Кбит/сек
Канал(ы): 6 канала(ов)
Расположение каналов: Front: L C R, Side: L R, LFE
Частота: 48,0 КГц
Битовая глубина: 16 бит
Метод сжатия: С потерями
Задержка видео: -400 мс.
Размер потока: 58,8 Мбайт (6%)

Аудио #2
Идентификатор: 129 (0x81)
Формат: AC-3
Формат/Информация: Audio Coding 3
Расширение режима: CM (complete main)
Продолжительность: 18 м.
Вид битрейта: Постоянный
Битрейт: 448 Кбит/сек
Канал(ы): 6 канала(ов)
Расположение каналов: Front: L C R, Side: L R, LFE
Частота: 48,0 КГц
Битовая глубина: 16 бит
Метод сжатия: С потерями
Задержка видео: -400 мс.
Размер потока: 58,8 Мбайт (6%)

Аудио #3
Идентификатор: 138 (0x8A)
Формат: DTS
Формат/Информация: Digital Theater Systems
Продолжительность: 18 м.
Вид битрейта: Постоянный
Битрейт: 755 Кбит/сек
Канал(ы): 6 канала(ов)
Расположение каналов: Front: L C R, Side: L R, LFE
Частота: 48,0 КГц
Битовая глубина: 24 бит
Метод сжатия: С потерями
Задержка видео: -421 мс.
Размер потока: 99,0 Мбайт (10%)

Текст
Идентификатор: 32 (0x20)
Формат: RLE
Формат/Информация: Run-length encoding
Продолжительность: 18 м.
Задержка видео: 1 с. 360 мс.



















Поделиться:




реклама партнёра


Вернуться к началу
 Профиль Отправить личное сообщение  
 
   Похожие торренты   Автор   Торрент   Размер 
В этой теме нет новых непрочитанных сообщений. Полночный джаз / Round Midnight (Бертран Тавернье / Bertrand Tavernier) [1986г., драма, музыка, DVDRip] MVO

Alfredovich

15 | 2

2.05 ГБ

В этой теме нет новых непрочитанных сообщений. Воскрешение / Resurrection [ужасы, триллер, драма, криминал, детектив, 1999] DVD9, Dvo+Avo+Sub

salma3

16 | 3

5.34 ГБ

В этой теме нет новых непрочитанных сообщений. Целуя девушек / Kiss the Girls [триллер, драма, криминал, детектив, 1997] DVD9, 2Mvo+Dvo+2Avo+Sub

salma3

26 | 11

7.83 ГБ

В этой теме нет новых непрочитанных сообщений. Кибер / Blackhat (Майкл Манн) [боевик, триллер, драма, криминал, детектив, 2015] DVD9, Dub+Sub [лицензия]

Dracon

0 | 0

6.83 ГБ

В этой теме нет новых непрочитанных сообщений. Джентльмен грабитель / Electric Slide (Тристан Паттерсон) [Боевик, Триллер, Драма, Криминал, Биография, 2014] WEB-DLRip, dub [чистый звук]

Dracon

7 | 0

1.37 ГБ

В этой теме нет новых непрочитанных сообщений. Джентльмен грабитель / Electric Slide (Тристан Паттерсон) [Боевик, Триллер, Драма, Криминал, Биография, 2014] WEB-DL 720p, dub [чистый звук]

Dracon

4 | 0

2.97 ГБ

В этой теме нет новых непрочитанных сообщений. Призвание / The Calling (Джейсон Стоун) [триллер, криминал, детектив, 2014] DVD9, Mvo+Sub [Лицензия]

Dracon

15 | 7

6.89 ГБ


Начать новую тему Ответить на тему  [ 1 сообщение ] 




Для Мосгорсуда, Роскомнадзора и рекламодателей:: mosgorsud-torrent[собачка]yandex.ru