Торрент файл
скачать торрент магнет ссылка Добавлен: 07 янв 2012, 19:12
Размер: 4.66 ГБ
Сидеров: 0
Личеров: 4
Автор

СообщениеДобавлено: 07 янв 2012, 19:12 

Не в сети
Супермодератор
Аватара пользователя
Дата регистрации:
11 апр 2010, 18:10
Спасибо: 5995 / 7
Сообщения: 56686
Последний шанс/Против течения / Against the Current


Перевод: Профессиональный (многоголосый, закадровый)
Cубтитры:украинские, английские, польские, хорватские, греческие, хинди, исландские, словацкие, словенские
Формат: DVD9, DVD Video, MPEG2, AC3
Страна: США
Режиссер: Питер Каллахан
Жанр: драма
Продолжительность: 01:34:00
Год выпуска: 2009

В ролях: Джозеф Файнс, Саманта Шерман, Пелл Джеймс, Джастин Кирк, Элизабет Ризер, Эми Харгривз, Мартин Шакар, Чад Бригокас

Описание: Пол Томпсон уже 5 лет не может смириться с потерей любимой жены и в конце концов решает осуществить мечту всей своей жизни — проплыть реку Гудзон. Только не поперек, а вдоль. В компании друзей он начинает свой провокационный заплыв, который вскоре покажет не только границы его физических возможностей, но и пределы дружбы и права распоряжаться своей собственной судьбой.

Рейтинг на IMDB:6.9 / 10
Рейтинг на КиноПоиск.RU:6.21
Рейтинг на MPAA:R

Видео: 720x576, (PAL 16:9), 25,000 кадр/сек, MPEG Video, ~9800 Кбит/сек
Аудио#1:Русский Dolby AC3, 6 ch, ~448 Kbps [Профессиональный (многоголосый закадровый) R5 "Columbia/Sony" ]
Аудио#2:Английский Dolby AC3, 6 ch, ~448 Kbps [Оригинал]
Аудио#3:Чешский Dolby AC3, 6 ch, ~448 Kbps
Аудио#4:Польский Dolby AC3, 6 ch, ~448 Kbps

Доп.информация: Лицензионное издание

Общее
Полное имя: C:\Documents and Settings\Admin.MICROSOF-68219C\Мои документы\Загрузки\Protiv_techenija\VIDEO_TS\VTS_01_1.VOB
Формат: MPEG-PS
Размер файла: 1024 Мбайт
Продолжительность: 20 м.
Общий поток: 7072 Кбит/сек

Видео
Идентификатор: 224 (0xE0)
Формат: MPEG Video
Версия формата: Version 2
Профиль формата: Main@Main
Параметр BVOP формата: Да
Параметр матрицы формата: По умолчанию
Продолжительность: 20 м.
Вид битрейта: Переменный
Битрейт: 5140 Кбит/сек
Номинальный битрейт: 9800 Кбит/сек
Ширина: 720 пикс.
Высота: 576 пикс.
Соотношение сторон: 16:9
Частота кадров: 25,000 кадр/сек
Стандарт вещания: PAL
Цветовое пространство: YUV
Подвыборка цветности: 4:2:0
Битовая глубина: 8 бит
Тип развёртки: Прогрессивная
Порядок развёртки: Верхнее поле первое
Метод сжатия: С потерями
Бит/(Пиксели*Кадры): 0.496
Размер потока: 744 Мбайт (73%)

Аудио #1
Идентификатор: 128 (0x80)
Формат: AC-3
Формат/Информация: Audio Coding 3
Расширение режима: CM (complete main)
Продолжительность: 20 м.
Вид битрейта: Постоянный
Битрейт: 448 Кбит/сек
Канал(ы): 6 канала(ов)
Расположение каналов: Front: L C R, Side: L R, LFE
Частота: 48,0 КГц
Битовая глубина: 16 бит
Метод сжатия: С потерями
Размер потока: 64,9 Мбайт (6%)

Аудио #2
Идентификатор: 129 (0x81)
Формат: AC-3
Формат/Информация: Audio Coding 3
Расширение режима: CM (complete main)
Продолжительность: 20 м.
Вид битрейта: Постоянный
Битрейт: 448 Кбит/сек
Канал(ы): 6 канала(ов)
Расположение каналов: Front: L C R, Side: L R, LFE
Частота: 48,0 КГц
Битовая глубина: 16 бит
Метод сжатия: С потерями
Размер потока: 64,9 Мбайт (6%)

Аудио #3
Идентификатор: 130 (0x82)
Формат: AC-3
Формат/Информация: Audio Coding 3
Расширение режима: CM (complete main)
Продолжительность: 20 м.
Вид битрейта: Постоянный
Битрейт: 448 Кбит/сек
Канал(ы): 6 канала(ов)
Расположение каналов: Front: L C R, Side: L R, LFE
Частота: 48,0 КГц
Битовая глубина: 16 бит
Метод сжатия: С потерями
Размер потока: 64,9 Мбайт (6%)

Аудио #4
Идентификатор: 131 (0x83)
Формат: AC-3
Формат/Информация: Audio Coding 3
Расширение режима: CM (complete main)
Продолжительность: 20 м.
Вид битрейта: Постоянный
Битрейт: 448 Кбит/сек
Канал(ы): 6 канала(ов)
Расположение каналов: Front: L C R, Side: L R, LFE
Частота: 48,0 КГц
Битовая глубина: 16 бит
Метод сжатия: С потерями
Размер потока: 64,9 Мбайт (6%)











Поделиться:



Вернуться к началу
 Профиль Отправить личное сообщение  
 
   Похожие торренты   Автор   Торрент   Размер 
В этой теме нет новых непрочитанных сообщений. Последний шанс [Боевик, 2018] SATRip

salma3

1629 | 293

1.37 ГБ

В этой теме нет новых непрочитанных сообщений. Последний шанс [Боевик, 2017] SATRip-AVC

salma3

0 | 0

1.37 ГБ

В этой теме нет новых непрочитанных сообщений. Последний человек на Земле / The Last Man on Earth [02х01-10 из 13] (Фил Лорд, Кристофер Миллер, Питер Атенсио) [фантастика, комедия, 2015] HDTVRip [Jaskier]

Dracon

30 | 12

3.01 ГБ

В этой теме нет новых непрочитанных сообщений. Последний человек на Земле / The Last Man on Earth [02x01-09] (Фил Лорд, Кристофер Миллер, Питер Атенсио) [фантастика, комедия, 2015] HDTV 720p [Jaskier]

Dracon

60 | 517

6.15 ГБ

В этой теме нет новых непрочитанных сообщений. Последний человек на Земле / The Last Man on Earth [02х01-10 из 13] (Фил Лорд, Кристофер Миллер, Питер Атенсио) [2015, фантастика, комедия, WEB-DLRip | Кубик в Кубе]

Dracon

77 | 78

3.28 ГБ

В этой теме нет новых непрочитанных сообщений. Последний человек на Земле / The Last Man on Earth [02х01-10 из 13] (Фил Лорд, Кристофер Миллер, Питер Атенсио) [2015, фантастика, комедия, WEB-DL 720p | Кубик в Кубе]

Dracon

55 | 52

7.46 ГБ

В этой теме нет новых непрочитанных сообщений. Второй шанс / Danny Collins [драма, 2014] BDRip-AVC, Dub [iTunes]

salma3

82 | 10

2.13 ГБ


Начать новую тему Ответить на тему  [ 1 сообщение ] 




Для Мосгорсуда, Роскомнадзора и рекламодателей:: mosgorsud-torrent[собачка]yandex.ru
cron