Торрент файл
скачать торрент магнет ссылка Добавлен: 07 янв 2012, 19:12
Размер: 6 ГБ
Сидеров: 0
Личеров: 3
Автор

СообщениеДобавлено: 07 янв 2012, 19:12 

Не в сети
Супермодератор
Аватара пользователя
Дата регистрации:
11 апр 2010, 18:10
Спасибо: 5802 / 7
Сообщения: 56779
Обещать - не значит жениться / He's Just Not That Into You


Перевод: Профессиональный (полное дублирование)
Субтитры: Русские, английские, украинские
Формат: DVD9, DVD Video, MPEG2, AC3
Страна: США, Германия, Нидерланды
Режиссер: Кен Куопис
Жанр: драма, мелодрама, комедия
Продолжительность: 02:04:02
Год выпуска: 2009

В ролях: Бен Аффлек, Дженнифер Энистон, Скарлетт Йоханссон, Дрю Бэрримор, Дженнифер Коннелли, Крис Кристофферсон, Брэдли Купер, Джастин Лонг, Кевин Коннолли, Джиннифер Гудвин

Описание: Фильм, события которого разворачиваются в Балтиморе, повествует о непростых отношениях мужчины и женщины, которые не всегда верно истолковывают намерения друг друга. Привлекательный мужчина не спешит расстаться со своим статусом холостяка, чем вызывает бурную реакцию своей влюбленной подружки.

Рейтинг на IMDB: 6.4/10
Рейтинг МРАА: PG-13
Рейтинг КиноПоиск.RU: 7.182

Видео: 720x576 (PAL 16:9), 25,000 fps, MPEG-2 Video ~ 9800 kbps avg
Аудио #1: Английский: 48 kHz, AC3 Dolby Digital, 6 ch, ~ 448 kbps avg [Оригинал]
Аудио #2: Русский: 48 kHz, AC3 Dolby Digital, 6 ch, ~ 448 kbps avg [Профессиональный (полное дублирование)]
Аудио #3: Украинский: 48 kHz, AC3 Dolby Digital, 6 ch, ~ 448 kbps avg [Профессиональный (полное дублирование)]

Слоган: «Действительно ли Вы - исключение... или правило?»

Доп.информация: [ Лицензионное издание "CP Digital"]
Meню озвученное, статичное, на русском языке, с навигацией по эпизодам. Все кнопки функциональны.


Общее
Полное имя: D:\DVD\Обещать - не значит жениться\VIDEO_TS\VTS_06_2.VOB
Формат: MPEG-PS
Размер файла: 1024 Мбайт
Продолжительность: 23 м.
Общий поток: 5982 Кбит/сек

Видео
Идентификатор: 224 (0xE0)
Формат: MPEG Video
Версия формата: Version 2
Профиль формата: Main@Main
Параметр BVOP формата: Да
Параметр матрицы формата: По умолчанию
Параметры GOP формата: M=3, N=12
Продолжительность: 23 м.
Вид битрейта: Переменный
Битрейт: 4519 Кбит/сек
Номинальный битрейт: 9800 Кбит/сек
Ширина: 720 пикс.
Высота: 576 пикс.
Соотношение сторон: 16:9
Частота кадров: 25,000 кадр/сек
Стандарт вещания: PAL
Цветовое пространство: YUV
Подвыборка цветности: 4:2:0
Битовая глубина: 8 бит
Тип развёртки: Чересстрочная
Порядок развёртки: Верхнее поле первое
Метод сжатия: С потерями
Бит/(Пиксели*Кадры): 0.436
Размер потока: 773 Мбайт (76%)

Аудио #1
Идентификатор: 128 (0x80)
Формат: AC-3
Формат/Информация: Audio Coding 3
Расширение режима: CM (complete main)
Продолжительность: 23 м.
Вид битрейта: Постоянный
Битрейт: 448 Кбит/сек
Канал(ы): 6 канала(ов)
Расположение каналов: Front: L C R, Side: L R, LFE
Частота: 48,0 КГц
Битовая глубина: 16 бит
Метод сжатия: С потерями
Задержка видео: -496 мс.
Размер потока: 76,7 Мбайт (7%)

Аудио #2
Идентификатор: 129 (0x81)
Формат: AC-3
Формат/Информация: Audio Coding 3
Расширение режима: CM (complete main)
Продолжительность: 23 м.
Вид битрейта: Постоянный
Битрейт: 448 Кбит/сек
Канал(ы): 6 канала(ов)
Расположение каналов: Front: L C R, Side: L R, LFE
Частота: 48,0 КГц
Битовая глубина: 16 бит
Метод сжатия: С потерями
Задержка видео: -496 мс.
Размер потока: 76,7 Мбайт (7%)

Аудио #3
Идентификатор: 130 (0x82)
Формат: AC-3
Формат/Информация: Audio Coding 3
Расширение режима: CM (complete main)
Продолжительность: 23 м.
Вид битрейта: Постоянный
Битрейт: 448 Кбит/сек
Канал(ы): 6 канала(ов)
Расположение каналов: Front: L C R, Side: L R, LFE
Частота: 48,0 КГц
Битовая глубина: 16 бит
Метод сжатия: С потерями
Задержка видео: -496 мс.
Размер потока: 76,7 Мбайт (7%)

Текст #1
Идентификатор: 32 (0x20)
Формат: RLE
Формат/Информация: Run-length encoding
Продолжительность: 23 м.
Задержка видео: 1 с. 880 мс.

Текст #2
Идентификатор: 33 (0x21)
Формат: RLE
Формат/Информация: Run-length encoding
Продолжительность: 23 м.
Задержка видео: 1 с. 880 мс.



















Поделиться:




реклама партнёра


Вернуться к началу
 Профиль Отправить личное сообщение  
 
   Похожие торренты   Автор   Торрент   Размер 
В этой теме нет новых непрочитанных сообщений. Обещать - не значит жениться / He's Just Not That Into You [Драма, мелодрама, комедия, 2009] BDRip 720p, Dub [лицензия]

salma3

31 | 3

2.19 ГБ

В этой теме нет новых непрочитанных сообщений. Джинсы-талисман / The Sisterhood of the Traveling Pants (Кен Куопис / Ken Kwapis) [2005г., комедия, мелодрама, драма, приключения, DVDRip AVC] DUB

Alfredovich

0 | 2

2.14 ГБ

В этой теме нет новых непрочитанных сообщений. Типа счастье [1 сезон: 1-10 серия из 10] (Кен Куопис, Гейл Манкусо, Кен Уиттингэм) [Драма, комедия, 2015] HDTVRip [Amedia]

Dracon

34 | 10

3.21 ГБ

В этой теме нет новых непрочитанных сообщений. Привычка жениться / The Marrying Man [Мелодрама, комедия, музыка, 1991] BDRip 720p, Dub+Mvo+Sub

salma3

46 | 6

4.27 ГБ

В этой теме нет новых непрочитанных сообщений. Привычка жениться / The Marrying Man [Мелодрама, комедия, музыка, 1991] BDRip 1080p, Mvo+Avo+Sub

salma3

15 | 6

7.95 ГБ

В этой теме нет новых непрочитанных сообщений. Как жениться и остаться холостым / Prete-moi ta main [Комедия, 2006] BDRemux 1080p, Dub+Sub

salma3

0 | 0

13.64 ГБ

В этой теме нет новых непрочитанных сообщений. Она улыбается - значит влюбляется / Hasee Toh Phasee [мелодрама, комедия, 2014] DVDRip, Mvo+Sub

salma3

84 | 10

2.19 ГБ


Начать новую тему Ответить на тему  [ 1 сообщение ] 




Для Мосгорсуда, Роскомнадзора и рекламодателей:: mosgorsud-torrent[собачка]yandex.ru