Торрент файл
скачать торрент магнет ссылка Добавлен: 07 янв 2012, 19:11
Размер: 4.94 ГБ
Сидеров: 0
Личеров: 3
Автор

СообщениеДобавлено: 07 янв 2012, 19:11 

Не в сети
Супермодератор
Аватара пользователя
Дата регистрации:
11 апр 2010, 18:10
Спасибо: 5960 / 7
Сообщения: 56765
Последнее лето в Бойте / El ultimo verano de la Boyita


Перевод: Професситональный (многоголосый, закадровый)
Субтитры: Русские
Формат: DVD9, DVD Video, MPEG2, AC3
Страна: Франция, Испания, Аргентина
Режиссер: Юлия Соломонофф
Жанр: драма
Продолжительность: 01:25:05
Год выпуска: 2009

В ролях: Гуадалупе Алонсо, Николас Трейсе, Мирелла Паскуаль, Габо Корреа, Мария Клара Мерендино, Арнольдо Трейсе, Клаудио Квинтерос

Описание: Юная Джорджелина проводит лето на ферме, где тихо и размеренно течет патриархальная жизнь. Девочка знакомится с симпатичным, но нелюдимым подростком Марио, который прекрасно управляется с лошадьми. Парень никогда не снимает одежду, не ходит с мальчишками на реку. Джорджелина чувствует, что в этом крепком, но эмоционально закрытом юноше есть что-то необычное. Вскоре девочка узнает шокирующий секрет Марио…

Рейтинг на IMDB: 7.1/10
Рейтинг КиноПоиск.RU: 6.835

Видео: 720x576 (PAL 16:9), 25,000 fps, MPEG-2 Video ~ 9300 kbps avg
Аудио #1: Русский: 48 kHz, AC3 Dolby Digital, 2 ch, ~ 192 kbps avg [Профессиональный (многоглосый, закадровый)]
Аудио #2: Русский: 48 kHz, AC3 Dolby Digital, 6 ch, ~ 384 kbps avg [Профессиональный (многоглосый, закадровый)]
Аудио #3: Английский: 48 kHz, AC3 Dolby Digital, 6 ch, ~ 384 kbps avg [Оригинал]

Доп.информация: [ Лицензионное издание "Кармен Видео"]
Meню озвученное, частично анимированное, на русском языке, с навигацией по эпизодам. Все кнопки функциональны.


Общее
Полное имя: D:\DVD\Последнее лето в Бойте\VIDEO_TS\VTS_06_2.VOB
Формат: MPEG-PS
Размер файла: 1024 Мбайт
Продолжительность: 21 м.
Общий поток: 6704 Кбит/сек

Видео
Идентификатор: 224 (0xE0)
Формат: MPEG Video
Версия формата: Version 2
Профиль формата: Main@Main
Параметр BVOP формата: Да
Параметр матрицы формата: По умолчанию
Параметры GOP формата: M=3, N=12
Продолжительность: 21 м.
Вид битрейта: Переменный
Битрейт: 5611 Кбит/сек
Номинальный битрейт: 9300 Кбит/сек
Ширина: 720 пикс.
Высота: 576 пикс.
Соотношение сторон: 16:9
Частота кадров: 25,000 кадр/сек
Стандарт вещания: PAL
Цветовое пространство: YUV
Подвыборка цветности: 4:2:0
Битовая глубина: 8 бит
Тип развёртки: Чересстрочная
Порядок развёртки: Верхнее поле первое
Метод сжатия: С потерями
Бит/(Пиксели*Кадры): 0.541
Размер потока: 857 Мбайт (84%)

Аудио #1
Идентификатор: 128 (0x80)
Формат: AC-3
Формат/Информация: Audio Coding 3
Расширение режима: CM (complete main)
Продолжительность: 21 м.
Вид битрейта: Постоянный
Битрейт: 192 Кбит/сек
Канал(ы): 2 канала(ов)
Расположение каналов: Front: L R
Частота: 48,0 КГц
Битовая глубина: 16 бит
Метод сжатия: С потерями
Задержка видео: -688 мс.
Размер потока: 29,3 Мбайт (3%)

Аудио #2
Идентификатор: 129 (0x81)
Формат: AC-3
Формат/Информация: Audio Coding 3
Расширение режима: CM (complete main)
Продолжительность: 21 м.
Вид битрейта: Постоянный
Битрейт: 384 Кбит/сек
Канал(ы): 6 канала(ов)
Расположение каналов: Front: L C R, Side: L R, LFE
Частота: 48,0 КГц
Битовая глубина: 16 бит
Метод сжатия: С потерями
Задержка видео: -720 мс.
Размер потока: 58,6 Мбайт (6%)

Аудио #3
Идентификатор: 130 (0x82)
Формат: AC-3
Формат/Информация: Audio Coding 3
Расширение режима: CM (complete main)
Продолжительность: 21 м.
Вид битрейта: Постоянный
Битрейт: 384 Кбит/сек
Канал(ы): 6 канала(ов)
Расположение каналов: Front: L C R, Side: L R, LFE
Частота: 48,0 КГц
Битовая глубина: 16 бит
Метод сжатия: С потерями
Задержка видео: -720 мс.
Размер потока: 58,6 Мбайт (6%)



















Поделиться:




реклама партнёра


Вернуться к началу
 Профиль Отправить личное сообщение  
 
   Похожие торренты   Автор   Торрент   Размер 
В этой теме нет новых непрочитанных сообщений. Летние тучи / Nubes de verano (Фелипе Вега / Felipe Vega) [2004г., Испания, драма, DVDRip] Sub

Alfredovich

15 | 5

1.38 ГБ

В этой теме нет новых непрочитанных сообщений. Последнее воскресение / The Last Station [драма, мелодрама, биография, 2009] BDRip-AVC, Dub+Sub

salma3

37 | 2

1.45 ГБ

В этой теме нет новых непрочитанных сообщений. В одно прекрасное лето / Лето на ранчо Койот / Coyote Summer [мелодрама, приключения, семейный, 1995] DVDRip, Avo

salma3

25 | 7

1.46 ГБ

В этой теме нет новых непрочитанных сообщений. Последнее лицо / The Last Face [драма, 2016] WEB-DLRip, Mvo

salma3

691 | 356

1.37 ГБ

В этой теме нет новых непрочитанных сообщений. Последнее турне /  Hin und weg (Кристиан Цюберт) [Драма, Комедия, 2014] HDRip, avo

Dracon

1 | 0

1.46 ГБ

В этой теме нет новых непрочитанных сообщений. Последнее пророчество / The Garden [Ужасы, триллер, драма, 2006] DVDRip-AVC, Mvo

salma3

57 | 2

1.59 ГБ

В этой теме нет новых непрочитанных сообщений. Последнее метро / Le dernier metro [Драма, мелодрама, военный, 1980] HDRip, Mvo

salma3

13 | 1

1.37 ГБ


Начать новую тему Ответить на тему  [ 1 сообщение ] 




Для Мосгорсуда, Роскомнадзора и рекламодателей:: mosgorsud-torrent[собачка]yandex.ru