Торрент файл
скачать торрент магнет ссылка Добавлен: 07 янв 2012, 19:11
Размер: 6.93 ГБ
Сидеров: 0
Личеров: 12
Автор

СообщениеДобавлено: 07 янв 2012, 19:11 

Не в сети
Супермодератор
Аватара пользователя
Дата регистрации:
11 апр 2010, 18:10
Спасибо: 5803 / 7
Сообщения: 56779
Я плюю на ваши могилы [Расширенная версия] / I Spit on Your Grave [Unrated]


Перевод: Профессиональный (полное дублирование)
Cубтитры:русские
Формат: DVD9, DVD Video, MPEG2, AC3
Страна: США
Режиссер: Стивен Р. Монро
Жанр: триллер, криминал
Продолжительность: 01:43:47
Год выпуска: 2010

В ролях: Сара Батлер, Чэд Линдберг, Дэниел Фрэнзиси, Трейси Уолтер, Эндрю Ховард, Джефф Брэнсон, Родни Истман, Молли Миллиган, Саксон Шарбино

Описание: Молодая писательница на всё лето арендует сельский домик в лесной глуши, чтобы в тишине и спокойствии написать свой дебютный роман, но все планы нарушили четверо местных отморозков, жестоко изнасиловав, а затем избив, приятели решают, что девушку нельзя оставлять в живых и посылают своего умственно отсталого друга зарезать бедняжку, но тот не решился на убийство, а лишь измазав нож в её крови, возвращается к друзьям, продемонстрировать, что девушка мертва. Проходит время, насильники волнуются, что труп никто так и не нашёл, а Дженнифер жива, здорова и готовит всем четверым страшный подарок — кровавую месть…

Рейтинг на IMDB:6.4/10
Рейтинг на КиноПоиск.RU:6.074
Рейтинг на MPAA:R

Видео: 720x576, (PAL 16:9), 25,000 кадр/сек, MPEG2 Video, ~6552 Кбит/сек
Аудио#1:Русский 48,0 КГц, Dolby AC3, 6 ch, ~384 Кбит/сек [Профессиональный (полное дублирование) (Лицензия)]
Аудио#2:Английский 48,0 КГц, Dolby AC3, 6 ch, ~384 Кбит/сек [Оригинал]
Аудио#3:Русский 48,0 КГц, Dolby AC3, 2 ch, ~192 Кбит/сек [Профессиональный (полное дублирование)]

Доп.информация: Лицензионное издание
Дата выхода DVD: 16 февраля 2011, «Кармен Видео»

Общее
Полное имя: C:\Documents and Settings\Admin.MICROSOF-68219C\Мои документы\Загрузки\Ya_pljuju_na_vashi_mogily\VIDEO_TS\VTS_01_1.VOB
Формат: MPEG-PS
Размер файла: 1024 Мбайт
Продолжительность: 17 м.
Общий поток: 8045 Кбит/сек

Видео
Идентификатор: 224 (0xE0)
Формат: MPEG Video
Версия формата: Version 2
Профиль формата: Main@Main
Параметр BVOP формата: Да
Параметр матрицы формата: По умолчанию
Продолжительность: 17 м.
Вид битрейта: Постоянный
Битрейт: 6925 Кбит/сек
Номинальный битрейт: 6000 Кбит/сек
Ширина: 720 пикс.
Высота: 576 пикс.
Соотношение сторон: 16:9
Частота кадров: 25,000 кадр/сек
Стандарт вещания: PAL
Цветовое пространство: YUV
Подвыборка цветности: 4:2:0
Битовая глубина: 8 бит
Тип развёртки: Чересстрочная
Порядок развёртки: Нижнее поле первое
Метод сжатия: С потерями
Бит/(Пиксели*Кадры): 0.668
Размер потока: 881 Мбайт (86%)

Аудио #1
Идентификатор: 128 (0x80)
Формат: AC-3
Формат/Информация: Audio Coding 3
Расширение режима: CM (complete main)
Продолжительность: 17 м.
Вид битрейта: Постоянный
Битрейт: 192 Кбит/сек
Канал(ы): 2 канала(ов)
Расположение каналов: Front: L R
Частота: 48,0 КГц
Битовая глубина: 16 бит
Метод сжатия: С потерями
Размер потока: 24,4 Мбайт (2%)

Аудио #2
Идентификатор: 129 (0x81)
Формат: AC-3
Формат/Информация: Audio Coding 3
Расширение режима: CM (complete main)
Продолжительность: 17 м.
Вид битрейта: Постоянный
Битрейт: 384 Кбит/сек
Канал(ы): 6 канала(ов)
Расположение каналов: Front: L C R, Side: L R, LFE
Частота: 48,0 КГц
Битовая глубина: 16 бит
Метод сжатия: С потерями
Размер потока: 48,9 Мбайт (5%)

Аудио #3
Идентификатор: 130 (0x82)
Формат: AC-3
Формат/Информация: Audio Coding 3
Расширение режима: CM (complete main)
Продолжительность: 17 м.
Вид битрейта: Постоянный
Битрейт: 384 Кбит/сек
Канал(ы): 6 канала(ов)
Расположение каналов: Front: L C R, Side: L R, LFE
Частота: 48,0 КГц
Битовая глубина: 16 бит
Метод сжатия: С потерями
Размер потока: 48,9 Мбайт (5%)

Текст
Идентификатор: 32 (0x20)
Формат: RLE
Формат/Информация: Run-length encoding













Поделиться:




реклама партнёра


Вернуться к началу
 Профиль Отправить личное сообщение  
 
   Похожие торренты   Автор   Торрент   Размер 
В этой теме нет новых непрочитанных сообщений. Я плюю на ваши могилы 2 / I Spit On Your Grave 2 Я плюю на ваши могилы 2 / I Spit On Your Grave 2 [ужасы, триллер, криминал, 2013] BDRemux 1080p, Mvo+Sub [UNRATED | Лицензия]

Dracon

42 | 17

19.5 ГБ

В этой теме нет новых непрочитанных сообщений. Я плюю на ваши могилы 3 / I Spit on Your Grave 3 (Р.Д. Браунштейн) [ужасы, триллер, 2015] HDRip, Mvo [iTunes]

Dracon

502 | 20

1.44 ГБ

В этой теме нет новых непрочитанных сообщений. Я плюю на ваши могилы 3 / I Spit on Your Grave 3 (Р.Д. Браунштейн) [ужасы, триллер, 2015] BDRip 1080p, dvo

Dracon

2913 | 219

6.38 ГБ

В этой теме нет новых непрочитанных сообщений. Я плюю на ваши могилы 3 / I Spit on Your Grave 3 (Р.Д. Браунштейн) [ужасы, триллер, 2015] BDRip 720p, Mvo [iTunes]

Dracon

1056 | 57

4.28 ГБ

В этой теме нет новых непрочитанных сообщений. Спасение (Расширенная версия) / Extraction (Unrated Cut) (Стивен С. Миллер) [Триллер, 2015] WEB-DLRip, Dub [iTunes]

Dracon

6686 | 409

1.37 ГБ

В этой теме нет новых непрочитанных сообщений. Спасение (Расширенная версия) / Extraction (Unrated Cut) (Стивен С. Миллер) [Триллер, 2015] WEB-DL 720p, Dub [iTunes]

Dracon

2615 | 46

2.69 ГБ

В этой теме нет новых непрочитанных сообщений. От колыбели до могилы / Cradle 2 the Grave [боевик, триллер, драма, криминал, 2003] BDRip-AVC, Mvo

salma3

38 | 8

1.46 ГБ


Начать новую тему Ответить на тему  [ 1 сообщение ] 




Для Мосгорсуда, Роскомнадзора и рекламодателей:: mosgorsud-torrent[собачка]yandex.ru