Торрент файл
скачать торрент магнет ссылка Добавлен: 07 янв 2012, 19:11
Размер: 5.93 ГБ
Сидеров: 0
Личеров: 6
Автор

СообщениеДобавлено: 07 янв 2012, 19:11 

Не в сети
Супермодератор
Аватара пользователя
Дата регистрации:
11 апр 2010, 18:10
Спасибо: 5801 / 7
Сообщения: 56779
Этюды втроем / Castillos de cartоn


Перевод: Профессиональный (многоголосый)
Субтитры: Русские
Формат: DVD9, DVD Video, MPEG2, AC3
Страна: Испания
Режиссер: Сальвадор Гарсия Руис
Жанр: драма
Продолжительность: 01:34:14
Год выпуска: 2009

В ролях: Нило Мур, Бьель Дюран, Кристиан Магалони, Пепа Педроче, Альфонсо Торрегроса, Альваро Агилар, Фелицидад Блан, Диего Брагински, Кристиан Магалони, Лола Марцели

Описание: Мария Хосе, студентка Академии изящных искусств, к своему удивлению замечает, что ее однокурсник Маркос увлеченно рисует ее портрет… Оставшись наедине, Мария Хосе и Маркос чувствуют влечение друг к другу, но неожиданно в комнате появляется лучший друг Маркоса, Хайме. Так начинается любовная история трех юных художников. Эта романтическая связь ведет к удивительному переплетению чувств, страстей и желаний…

Рейтинг на IMDB: 5.7/10
Рейтинг КиноПоиск.RU: 6.207

Видео: 720x576 (PAL 16:9), 25,000 fps, MPEG-2 Video ~ 8000 kbps avg
Аудио #1: Русский: 48 kHz, AC3 Dolby Digital, 6 ch, ~ 384 kbps avg [Профессиональный (многоголосый)]
Аудио #2: Испанский: 48 kHz, AC3 Dolby Digital, 6 ch, ~ 384 kbps avg [Оригинал]

Доп.информация: [ Лицензионное издание "Кармен Видео"]
Meню озвученное, частично анимированное, на русском языке, с навигацией по эпизодам. Все кнопки функциональны.


Общее
Полное имя: D:\DVD\Этюды втроем\VIDEO_TS\VTS_04_4.VOB
Формат: MPEG-PS
Размер файла: 1024 Мбайт
Продолжительность: 18 м.
Общий поток: 7698 Кбит/сек

Видео
Идентификатор: 224 (0xE0)
Формат: MPEG Video
Версия формата: Version 2
Профиль формата: Main@Main
Параметр BVOP формата: Да
Параметр матрицы формата: По умолчанию
Параметры GOP формата: M=3, N=15
Продолжительность: 18 м.
Вид битрейта: Переменный
Битрейт: 6776 Кбит/сек
Номинальный битрейт: 8000 Кбит/сек
Ширина: 720 пикс.
Высота: 576 пикс.
Соотношение сторон: 16:9
Частота кадров: 25,000 кадр/сек
Стандарт вещания: PAL
Цветовое пространство: YUV
Подвыборка цветности: 4:2:0
Битовая глубина: 8 бит
Тип развёртки: Чересстрочная
Порядок развёртки: Верхнее поле первое
Метод сжатия: С потерями
Бит/(Пиксели*Кадры): 0.654
Размер потока: 901 Мбайт (88%)

Аудио #1
Идентификатор: 128 (0x80)
Формат: AC-3
Формат/Информация: Audio Coding 3
Расширение режима: CM (complete main)
Продолжительность: 18 м.
Вид битрейта: Постоянный
Битрейт: 384 Кбит/сек
Канал(ы): 6 канала(ов)
Расположение каналов: Front: L C R, Side: L R, LFE
Частота: 48,0 КГц
Битовая глубина: 16 бит
Метод сжатия: С потерями
Задержка видео: -544 мс.
Размер потока: 51,1 Мбайт (5%)

Аудио #2
Идентификатор: 129 (0x81)
Формат: AC-3
Формат/Информация: Audio Coding 3
Расширение режима: CM (complete main)
Продолжительность: 18 м.
Вид битрейта: Постоянный
Битрейт: 384 Кбит/сек
Канал(ы): 6 канала(ов)
Расположение каналов: Front: L C R, Side: L R, LFE
Частота: 48,0 КГц
Битовая глубина: 16 бит
Метод сжатия: С потерями
Задержка видео: -544 мс.
Размер потока: 51,1 Мбайт (5%)



















Поделиться:




реклама партнёра


Вернуться к началу
 Профиль Отправить личное сообщение  
 
   Похожие торренты   Автор   Торрент   Размер 
В этой теме нет новых непрочитанных сообщений. Сальвадор / Salvador [Триллер, драма, военный, 1986] BDRip 1080p, Mvo

salma3

25 | 9

17.76 ГБ

В этой теме нет новых непрочитанных сообщений. Он ушел в воскресенье / Un beau dimanche (Николь Гарсия) [2013, драма, DVDRip] mvo

Dracon

308 | 21

1.46 ГБ

В этой теме нет новых непрочитанных сообщений. Втроем перед вебкой (2013) CamRip

Max79

5 | 2

176.7 МБ

В этой теме нет новых непрочитанных сообщений. Втроем веселее [2014 г., Amateur, CamRip]

Dievas

22 | 2

121.29 МБ

В этой теме нет новых непрочитанных сообщений. Втроем [2013 г., Amateur, Group, CamRip]

friizze

22 | 3

86.81 МБ

В этой теме нет новых непрочитанных сообщений. Как-то втроём сообразили [2013 г., Amateur, 720p, DVDRip]

Dievas

7 | 4

277.33 МБ

В этой теме нет новых непрочитанных сообщений. Частное втроем [2014 г., Amateur, Group, CamRip 768p]

friizze

5 | 2

520.42 МБ


Начать новую тему Ответить на тему  [ 1 сообщение ] 




Для Мосгорсуда, Роскомнадзора и рекламодателей:: mosgorsud-torrent[собачка]yandex.ru