Торрент файл
скачать торрент магнет ссылка Добавлен: 07 янв 2012, 19:10
Размер: 7.44 ГБ
Сидеров: 0
Личеров: 5
Автор

СообщениеДобавлено: 07 янв 2012, 19:10 

Не в сети
Супермодератор
Аватара пользователя
Дата регистрации:
11 апр 2010, 18:10
Спасибо: 5802 / 7
Сообщения: 56779
Амелия / Amelia


Перевод: Профессиональное (полное дублирование)
Субтитры: Русские, английские, итальянские, испанские, эстонские, латвийские, литовские, арабские, индийские, хинди, казахские, украинские, португальские
Формат: DVD9, DVD Video, MPEG2, AC3
Страна: США, Канада
Режиссер: Мира Наир
Жанр: драма, мелодрама, приключения, биография
Продолжительность: 01:46:50
Год выпуска: 2009

В ролях: Хилари Суэнк, Ричард Гир, Эван МакГрегор, Кристофер Экклстон, Джо Андерсон, Черри Джонс, Миа Вашиковска, Аарон Абрамс, Дилан Робертс

Описание: История жизни легендарной женщины-пилота Амелии Эрхарт, исчезнувшей в ходе перелёта через Тихий океан в 1937 году, в её попытке совершить кругосветный перелёт.

Рейтинг на IMDB: 5.7/10
Рейтинг МРАА: PG
Рейтинг КиноПоиск.RU: 6.138

Видео: 720x576 (PAL 16:9), 25,000 fps, MPEG-2 Video ~ 9800 kbps avg
Аудио #1: Английский: 48 kHz, AC3 Dolby Digital, 6 ch ~ 448 kbps avg [Оигинал]
Аудио #2: Итальянский: 48 kHz, AC3 Dolby Digital, 6 ch ~ 384 kbps avg
Аудио #3: Русский: 48 kHz, AC3 Dolby Digital, 6 ch, 384 ~ kbps avg [Профессиональное (полное дублирование)]
Аудио #4: Испанский: 48 kHz, AC3 Dolby Digital, 6 ch, 384 ~ kbps avg

Слоган: «Легенда. Любовь. Загадка.»

Доп.информация: [ Лицензионное издание "20th Century Fox"]
Meню озвученное, статичное, на русском языке, с навигацией по эпизодам. Все кнопки функциональны.


Общее
Полное имя: D:\DVD\Амелия\VIDEO_TS\VTS_01_3.VOB
Формат: MPEG-PS
Размер файла: 1024 Мбайт
Продолжительность: 16 м.
Общий поток: 8622 Кбит/сек

Видео
Идентификатор: 224 (0xE0)
Формат: MPEG Video
Версия формата: Version 2
Профиль формата: Main@Main
Параметр BVOP формата: Да
Параметр матрицы формата: По умолчанию
Параметры GOP формата: M=3, N=12
Продолжительность: 16 м.
Вид битрейта: Переменный
Битрейт: 6850 Кбит/сек
Номинальный битрейт: 9800 Кбит/сек
Ширина: 720 пикс.
Высота: 576 пикс.
Соотношение сторон: 16:9
Частота кадров: 25,000 кадр/сек
Стандарт вещания: Component
Цветовое пространство: YUV
Подвыборка цветности: 4:2:0
Битовая глубина: 8 бит
Тип развёртки: Прогрессивная
Порядок развёртки: Верхнее поле первое
Метод сжатия: С потерями
Бит/(Пиксели*Кадры): 0.661
Размер потока: 813 Мбайт (79%)

Аудио #1
Идентификатор: 128 (0x80)
Формат: AC-3
Формат/Информация: Audio Coding 3
Расширение режима: CM (complete main)
Продолжительность: 16 м.
Вид битрейта: Постоянный
Битрейт: 448 Кбит/сек
Канал(ы): 6 канала(ов)
Расположение каналов: Front: L C R, Side: L R, LFE
Частота: 48,0 КГц
Битовая глубина: 16 бит
Метод сжатия: С потерями
Задержка видео: -280 мс.
Размер потока: 53,2 Мбайт (5%)

Аудио #2
Идентификатор: 129 (0x81)
Формат: AC-3
Формат/Информация: Audio Coding 3
Расширение режима: CM (complete main)
Продолжительность: 16 м.
Вид битрейта: Постоянный
Битрейт: 384 Кбит/сек
Канал(ы): 6 канала(ов)
Расположение каналов: Front: L C R, Side: L R, LFE
Частота: 48,0 КГц
Битовая глубина: 16 бит
Метод сжатия: С потерями
Задержка видео: -248 мс.
Размер потока: 45,6 Мбайт (4%)

Аудио #3
Идентификатор: 130 (0x82)
Формат: AC-3
Формат/Информация: Audio Coding 3
Расширение режима: CM (complete main)
Продолжительность: 16 м.
Вид битрейта: Постоянный
Битрейт: 384 Кбит/сек
Канал(ы): 6 канала(ов)
Расположение каналов: Front: L C R, Side: L R, LFE
Частота: 48,0 КГц
Битовая глубина: 16 бит
Метод сжатия: С потерями
Задержка видео: -248 мс.
Размер потока: 45,6 Мбайт (4%)

Аудио #4
Идентификатор: 131 (0x83)
Формат: AC-3
Формат/Информация: Audio Coding 3
Расширение режима: CM (complete main)
Продолжительность: 16 м.
Вид битрейта: Постоянный
Битрейт: 384 Кбит/сек
Канал(ы): 6 канала(ов)
Расположение каналов: Front: L C R, Side: L R, LFE
Частота: 48,0 КГц
Битовая глубина: 16 бит
Метод сжатия: С потерями
Задержка видео: -248 мс.
Размер потока: 45,6 Мбайт (4%)

Текст #1
Идентификатор: 32 (0x20)
Формат: RLE
Формат/Информация: Run-length encoding

Текст #2
Идентификатор: 33 (0x21)
Формат: RLE
Формат/Информация: Run-length encoding

Текст #3
Идентификатор: 34 (0x22)
Формат: RLE
Формат/Информация: Run-length encoding

Текст #4
Идентификатор: 35 (0x23)
Формат: RLE
Формат/Информация: Run-length encoding

Текст #5
Идентификатор: 36 (0x24)
Формат: RLE
Формат/Информация: Run-length encoding

Текст #6
Идентификатор: 37 (0x25)
Формат: RLE
Формат/Информация: Run-length encoding

Текст #7
Идентификатор: 38 (0x26)
Формат: RLE
Формат/Информация: Run-length encoding

Текст #8
Идентификатор: 39 (0x27)
Формат: RLE
Формат/Информация: Run-length encoding

Текст #9
Идентификатор: 40 (0x2
Формат: RLE
Формат/Информация: Run-length encoding

Текст #10
Идентификатор: 41 (0x29)
Формат: RLE
Формат/Информация: Run-length encoding

Текст #11
Идентификатор: 42 (0x2A)
Формат: RLE
Формат/Информация: Run-length encoding

Текст #12
Идентификатор: 43 (0x2B)
Формат: RLE
Формат/Информация: Run-length encoding

Текст #13
Идентификатор: 44 (0x2C)
Формат: RLE
Формат/Информация: Run-length encoding




















Поделиться:




реклама партнёра


Вернуться к началу
 Профиль Отправить личное сообщение  
 
   Похожие торренты   Автор   Торрент   Размер 
В этой теме нет новых непрочитанных сообщений. Amelia Lyn / Amelia Lyn enjoys doubly (2015) HD 720p

Dile-1

5 | 1

659.98 МБ

В этой теме нет новых непрочитанных сообщений. Последнее воскресение / The Last Station [драма, мелодрама, биография, 2009] BDRip-AVC, Dub+Sub

salma3

37 | 2

1.45 ГБ

В этой теме нет новых непрочитанных сообщений. Последнее воскресение / The Last Station [драма, мелодрама, биография, 2009] BDRip 1080p, Dub+Sub

salma3

23 | 8

7.75 ГБ

В этой теме нет новых непрочитанных сообщений. Джими Хендрикс / All Is by My Side [Драма, биография, музыка, 2013] DVD9, Mvo+Sub [лицензия]

Dracon

42 | 4

5.75 ГБ

В этой теме нет новых непрочитанных сообщений. Блеск / Shine [драма, мелодрама, биография, музыка, 1996] BDRemux, Dvo+Avo+Sub

salma3

5 | 3

23.1 ГБ

В этой теме нет новых непрочитанных сообщений. Все, что у меня есть / Freeheld [драма, мелодрама, биография, 2015] BDRip, Dvo+Avo

salma3

221 | 4

1.51 ГБ

В этой теме нет новых непрочитанных сообщений. Саутсайд с тобой / Southside with You [драма, мелодрама, биография, 2016] HDRip, Mvo

salma3

55 | 33

1.37 ГБ


Начать новую тему Ответить на тему  [ 1 сообщение ] 




Для Мосгорсуда, Роскомнадзора и рекламодателей:: mosgorsud-torrent[собачка]yandex.ru