Торрент файл
скачать торрент магнет ссылка Добавлен: 07 янв 2012, 19:10
Размер: 5.41 ГБ
Сидеров: 1
Личеров: 7
Автор

СообщениеДобавлено: 07 янв 2012, 19:10 

Не в сети
Супермодератор
Аватара пользователя
Дата регистрации:
11 апр 2010, 18:10
Спасибо: 5802 / 7
Сообщения: 56779
Теккен / Tekken


Перевод: Профессиональный (многоголосый, закадровый)
Cубтитры:русские
Формат: DVD9, DVD Video, MPEG2, AC3
Страна: США, Япония
Режиссер: Дуайт Х. Литтл
Жанр: фантастика, боевик, фэнтези
Продолжительность: 01:27:35
Год выпуска: 2010

В ролях: Гэри Дэниелс, Люк Госс, Латиф Кроудер, Йен Энтони Дэйл, Кэри-Хироюки Тагава, Мирчи Монро, Тэмлин Томита, Кунг Ле, Джон Фу, Келли Овертон

Описание: Джин Казама — молодой и талантливый боец с тёмной силой, таящейся внутри него. Дьявольский ген, который он унаследовал от своего отца, Казуйи Мишимы, медленно разрывает его на части и погружает его разум в ненависть и злобу. Теперь он точно знает, что для того, чтобы спастись, ему надо сразиться не только со своим отцом, но и со своим дедом, Хейхаши Мишимой. И у Казуйи, и у Хейхаши есть свои собственные планы относительно того, как распорядиться силой Джина.

Рейтинг IMDB: 5.4/10
Рейтинг Кинопоиск.RU: 4.935
Рейтинг MPAA: R

Видео: 720x576, (PAL 16:9), 25,000 кадр/сек, MPEG Video, ~5986 Кбит/сек
Аудио#1:Русский 48,0 КГц, AC3, 6 ch, ~448 Кбит/сек [Профессиональный (многоголосый закадровый)]
Аудио#2:Английский 48,0 КГц, AC3, 6 ch, ~448 Кбит/сек [Оригинал]
Аудио#3:Русский48,0 КГц, DTS, 6 ch, ~755 Кбит/сек [Профессиональный (многоголосый закадровый)]

Доп.информация: Лицензионное издание

Дата выхода DVD: 17 февраля 2011, «CP-Digital»

Общее
Полное имя: C:\Documents and Settings\Admin.MICROSOF-68219C\Мои документы\Загрузки\Tekken\VIDEO_TS\VTS_05_1.VOB
Формат: MPEG-PS
Размер файла: 1024 Мбайт
Продолжительность: 18 м.
Общий поток: 7792 Кбит/сек

Видео
Идентификатор: 224 (0xE0)
Формат: MPEG Video
Версия формата: Version 2
Профиль формата: Main@Main
Параметр BVOP формата: Да
Параметр матрицы формата: По умолчанию
Продолжительность: 18 м.
Вид битрейта: Переменный
Битрейт: 5986 Кбит/сек
Номинальный битрейт: 8000 Кбит/сек
Ширина: 720 пикс.
Высота: 576 пикс.
Соотношение сторон: 4:3
Частота кадров: 25,000 кадр/сек
Стандарт вещания: PAL
Цветовое пространство: YUV
Подвыборка цветности: 4:2:0
Битовая глубина: 8 бит
Тип развёртки: Чересстрочная
Порядок развёртки: Верхнее поле первое
Метод сжатия: С потерями
Бит/(Пиксели*Кадры): 0.577
Размер потока: 787 Мбайт (77%)

Аудио #1
Идентификатор: 128 (0x80)
Формат: AC-3
Формат/Информация: Audio Coding 3
Расширение режима: CM (complete main)
Продолжительность: 18 м.
Вид битрейта: Постоянный
Битрейт: 448 Кбит/сек
Канал(ы): 6 канала(ов)
Расположение каналов: Front: L C R, Side: L R, LFE
Частота: 48,0 КГц
Битовая глубина: 16 бит
Метод сжатия: С потерями
Размер потока: 58,9 Мбайт (6%)

Аудио #2
Идентификатор: 129 (0x81)
Формат: AC-3
Формат/Информация: Audio Coding 3
Расширение режима: CM (complete main)
Продолжительность: 18 м.
Вид битрейта: Постоянный
Битрейт: 448 Кбит/сек
Канал(ы): 6 канала(ов)
Расположение каналов: Front: L C R, Side: L R, LFE
Частота: 48,0 КГц
Битовая глубина: 16 бит
Метод сжатия: С потерями
Размер потока: 58,9 Мбайт (6%)

Аудио #3
Идентификатор: 138 (0x8A)
Формат: DTS
Формат/Информация: Digital Theater Systems
Продолжительность: 18 м.
Вид битрейта: Постоянный
Битрейт: 755 Кбит/сек
Канал(ы): 6 канала(ов)
Расположение каналов: Front: L C R, Side: L R, LFE
Частота: 48,0 КГц
Битовая глубина: 24 бит
Метод сжатия: С потерями
Размер потока: 99,1 Мбайт (10%)









Поделиться:




реклама партнёра


Вернуться к началу
 Профиль Отправить личное сообщение  
 
   Похожие торренты   Автор   Торрент   Размер 
В этой теме нет новых непрочитанных сообщений. Теккен 2 / Tekken: A Man Called X / Tekken: Kazuya's Revenge [боевик, 2014] BDRip 720p, Dvo+Sub

salma3

314 | 15

3.88 ГБ

В этой теме нет новых непрочитанных сообщений. Теккен 2 / Tekken: A Man Called X [боевик, 2014] HDRip, Dvo

salma3

908 | 28

1.36 ГБ

В этой теме нет новых непрочитанных сообщений. Теккен 2 / Tekken: A Man Called X [боевик, 2014] BDRip 1080p, Dvo

salma3

118 | 14

4.61 ГБ

В этой теме нет новых непрочитанных сообщений. Скорпион / Scorpion [02х01-23 из 24] (Гэри Фледер, Дуайт Х. Литтл, Бобби Рот) [2015, Драма, боевик, HDTVRip | IdeaFilm]

Dracon

36 | 64

11.52 ГБ

В этой теме нет новых непрочитанных сообщений. Скорпион / Scorpion [01x01-13 из 22] (Гэри Фледер, Дуайт Х. Литтл, Бобби Рот) [2014, боевик, драма, WEB-DL 720p | BaibaKo]

Nickolas3435

2 | 8

18.32 ГБ

В этой теме нет новых непрочитанных сообщений. Скорпион / Scorpion [02x01-08 из 22] (Гэри Фледер, Дуайт Х. Литтл, Бобби Рот) [2015, Боевик, Драма, WEB-DL 720p | BaibaKo]

Dracon

24 | 50

12.16 ГБ

В этой теме нет новых непрочитанных сообщений. Скорпион / Scorpion [02х01-11 из 22] (Гэри Фледер, Дуайт Х. Литтл, Бобби Рот) [2015, Драма, боевик, HDTVRip | IdeaFilm]

Nickolas3435

0 | 0

5.78 ГБ


Начать новую тему Ответить на тему  [ 1 сообщение ] 




Для Мосгорсуда, Роскомнадзора и рекламодателей:: mosgorsud-torrent[собачка]yandex.ru