Торрент файл
скачать торрент магнет ссылка Добавлен: 07 янв 2012, 19:10
Размер: 5.16 ГБ
Сидеров: 0
Личеров: 5
Автор

СообщениеДобавлено: 07 янв 2012, 19:10 

Не в сети
Супермодератор
Аватара пользователя
Дата регистрации:
11 апр 2010, 18:10
Спасибо: 5960 / 7
Сообщения: 56765
Замороженный / Hibernatus

Перевод: Профессиональный (полное дублирование)
Субтитры: Русские
Формат: DVD9, DVD Video, MPEG2, AC3
Страна: Франция, Италия
Режиссер: Эдуард Молинаро
Жанр: Фантастика, фэнтези, комедия
Продолжительность: 01:18:36
Год выпуска: 1969

В ролях: Луи де Фюнес, Микаэль Лонсдаль, Клауди Жансак, Бернар Алан, Анник Алан, Оливье Де Фюнес, Эльетт Демэ, Мартина Келли ,Жак Легра, Паскаль Маззотти ...

Роли дублировали: Александр Белявский, Юрий Боголюбов, Нина Зорская, Евгений Жариков, Вера Бурлакова ...

Описание: Юбер де Тартас, богатый промышленник, живет счастливо со своей женой Эдме и сыном. Но внезапно странное событие потрясает их жизнь: на полюсе найден замороженный дедушка его жены, пролежавший в ледяной глыбе 65 лет. Его выводят из состояния зимней спячки, а чтобы не травмировать дедушкину психику, пытаются инсценировать вокруг него жизнь начала XX века. Но в их планы вмешиваются непредвиденные обстоятельства…

Рейтинг на КиноПоиск: 7.671 (1 813)
Рейтинг на IMDb: 6.4/10

Видео: 720X576 (PAL 2.35), 25.000fps, MPEG-2 Video, ~ 7 500Kbps avg
Аудио#1: Русский 48.0KHz, AC-3, 2 ch, ~ 192Kbps avg[Профессиональный (полное дублирование)]
Аудио#2: Русский 48.0KHz, AC-3, 2 ch, ~ 192Kbps avg[Профессиональный (многоголосый,закадровый)]
Аудио#3: Французский 48.0KHz, AC-3, 2 ch, ~ 192Kbps avg[Оригинал]

Слоган:[font=Coo�t>Sans MS] «Если дедушку оттаять - хорошего не жди...»[/font]

Трейлер к фильму
General
Complete name: D:\загрузка\hibernatus_[tfile.ru]\VIDEO_TS\VTS_08_4.VOB
Format: MPEG-PS
File size: 1 024 MiB
Duration: 17mn 23s
Overall bit rate: 8 228 Kbps

Video
ID: 224 (0xE0)
Format: MPEG Video
Format version: Version 2
Format profile: Main@Main
Format settings, Matrix: Default
Duration: 17mn 23s
Bit rate mode: Constant
Bit rate: 7 325 Kbps
Nominal bit rate: 7 500 Kbps
Width: 720 pixels
Height: 576 pixels
Display aspect ratio: 2.35
Frame rate: 25.000 fps
Standard: PAL
Colorimetry: 4:2:0
Scan type: Interlaced
Scan order: Top Field First
Bits/(Pixel*Frame): 0.706
Stream size: 912 MiB (89%)

Audio #1
ID: 128 (0x80)
Format: AC-3
Format/Info: Audio Coding 3
Duration: 17mn 23s
Bit rate mode: Constant
Bit rate: 192 Kbps
Channel(s): 2 channels
Channel positions: L R
Sampling rate: 48.0 KHz
Video delay: -344ms
Stream size: 23.9 MiB (2%)

Audio #2
ID: 129 (0x81)
Format: AC-3
Format/Info: Audio Coding 3
Duration: 17mn 23s
Bit rate mode: Constant
Bit rate: 192 Kbps
Channel(s): 2 channels
Channel positions: L R
Sampling rate: 48.0 KHz
Video delay: -344ms
Stream size: 23.9 MiB (2%)

Audio #3
ID: 130 (0x82)
Format: AC-3
Format/Info: Audio Coding 3
Duration: 17mn 23s
Bit rate mode: Constant
Bit rate: 192 Kbps
Channel(s): 2 channels
Channel positions: L R
Sampling rate: 48.0 KHz
Video delay: -344ms
Stream size: 23.9 MiB (2%)

Text
ID: 32 (0x20)
Format: RLE
Format/Info: Run-length encoding

Menu
Format: DVD-Video
[font=Coo�t>Sans MS]
Сценарий: Жан Бернар-Люк, Жак Вильфрид, Луи де Фюнес
Продюсер: Ален Пуаре
Оператор: Марсель Гриньон, Раймон Пьер Лемуань
Композитор: Жорж Дельрю
Художник: Франсуа Де Ламот, Жак Фонтере
Монтаж: Моника Иснардо, Роберт Иснардо
Зрители: СССР27.6 млн.
Премьера (мир): 10 сентября 1969
Релиз на DVD: 9 октября 2008, «Мьюзик-Трейд», ...
[/font]

























Поделиться:




реклама партнёра


Вернуться к началу
 Профиль Отправить личное сообщение  
 
   Похожие торренты   Автор   Торрент   Размер 
В этой теме нет новых непрочитанных сообщений. Замороженный / Hibernatus [фантастика, фэнтези, комедия, 1969] BDRip 720p, Dub+Mvo+Sub

salma3

58 | 34

7.16 ГБ

В этой теме нет новых непрочитанных сообщений. Замороженный / Hibernatus [комедия, фантастика, экранизация, 1969] BDRemux 1080p, Dub+Mvo+Sub

salma3

1 | 12

19.39 ГБ

В этой теме нет новых непрочитанных сообщений. Замороженный / Hibernatus [комедия, фантастика, экранизация, 1969] BDRemux 1080p, Dub

salma3

7 | 2

19.39 ГБ

В этой теме нет новых непрочитанных сообщений. Замороженный / Ледяной человек / Iceman [драма, фантастика, 1984] WEB-DL 1080p, Mvo

salma3

18 | 27

10.43 ГБ

В этой теме нет новых непрочитанных сообщений. Неземные проделки (Эдуард Габидуллин) [2016, детский, комедия, фантастика, WEBRip]

marya111

3 | 2

1 ГБ

В этой теме нет новых непрочитанных сообщений. Жилая комната / The Bed Sitting Room [фантастика, комедия, 1969] HDRip, Dvo [НТВ+]

salma3

36 | 12

1.45 ГБ

В этой теме нет новых непрочитанных сообщений. Кредо убийцы / Assassin's Creed [Фантастика, фэнтези, боевик, 2016] DVD9, Dub [Custom]

salma3

79 | 38

7.36 ГБ


Начать новую тему Ответить на тему  [ 1 сообщение ] 




Для Мосгорсуда, Роскомнадзора и рекламодателей:: mosgorsud-torrent[собачка]yandex.ru