Торрент файл
скачать торрент магнет ссылка Добавлен: 07 янв 2012, 19:10
Размер: 5.57 ГБ
Сидеров: 5
Личеров: 4
Автор

СообщениеДобавлено: 07 янв 2012, 19:10 

Не в сети
Супермодератор
Аватара пользователя
Дата регистрации:
11 апр 2010, 18:10
Спасибо: 5963 / 7
Сообщения: 56762
Механик / The Mechanic


Перевод: Профессиональный (полное дублирование)
Субтитры: Отсутствуют
Формат: DVD9, DVD Video, MPEG2, AC3
Страна: США
Режиссер: Саймон Уэст
Жанр: боевик, триллер, драма
Продолжительность: 01:28:31
Год выпуска: 2011

В ролях: Джейсон Стэтхэм, Бен Фостер, Тони Голдуин, Дональд Сазерленд, Джефф Чейз, Мини Анден, Джеймс Логан, Эдди Дж. Фернандез, Джошуа Бриджуотер, Джон МакКоннелл

Описание: Артур Бишоп — «Механик», высокопрофессиональный безукоризненный киллер, который всегда работает по правилам — «чисто» и без следов. Такая работа требует полного самообладания и беспристрастности, и в своём деле ему нет равных. Бишоп всегда работал один, но ему пришлось стать наставником молодого и отчаянного Стива. Методичный профессионал и импульсивный ученик теперь на пару «устраняют проблемы», но рано или поздно они сойдутся в смертельной схватке…

Рейтинг на IMDB: 6.8/10
Рейтинг МРАА: R
Рейтинг КиноПоиск.RU: 6.689

Видео: 720x576 (PAL 16:9), 25,000 fps, MPEG 2 Video ~ 7941 kbps avg
Аудио: Русский: 48 kHz, AC3 Dolby Digital, 6 ch, ~ 384 kbps avg [Профессиональный (полное дублирование)]

turbobit | depositfiles

Доп.информация: [ Лицензионное издание «Монолит» PAL 16:9]
Meню озвученное, статичное, на русском языке, с навигацией по эпизодам. Все кнопки функциональны.


Общее
Полное имя: D:\Новая папка\Механик\VIDEO_TS\VTS_01_3.VOB
Формат: MPEG-PS
Размер файла: 1024 Мбайт
Продолжительность: 16 м.
Общий поток: 8466 Кбит/сек

Видео
Идентификатор: 224 (0xE0)
Формат: MPEG Video
Версия формата: Version 2
Профиль формата: Main@Main
Параметр BVOP формата: Да
Параметр матрицы формата: По умолчанию
Параметры GOP формата: M=3, N=15
Продолжительность: 16 м.
Вид битрейта: Постоянный
Битрейт: 7941 Кбит/сек
Ширина: 720 пикс.
Высота: 576 пикс.
Соотношение сторон: 16:9
Частота кадров: 25,000 кадр/сек
Стандарт вещания: PAL
Цветовое пространство: YUV
Подвыборка цветности: 4:2:0
Битовая глубина: 8 бит
Тип развёртки: Прогрессивная
Метод сжатия: С потерями
Бит/(Пиксели*Кадры): 0.766
Размер потока: 957 Мбайт (93%)

Аудио
Идентификатор: 128 (0x80)
Формат: AC-3
Формат/Информация: Audio Coding 3
Расширение режима: CM (complete main)
Продолжительность: 16 м.
Вид битрейта: Постоянный
Битрейт: 384 Кбит/сек
Канал(ы): 6 канала(ов)
Расположение каналов: Front: L C R, Side: L R, LFE
Частота: 48,0 КГц
Битовая глубина: 16 бит
Метод сжатия: С потерями
Задержка видео: -712 мс.
Размер потока: 46,4 Мбайт (5%)











Поделиться:




реклама партнёра


Вернуться к началу
 Профиль Отправить личное сообщение  
 
   Похожие торренты   Автор   Торрент   Размер 
В этой теме нет новых непрочитанных сообщений. Механик Воскрешение / Mechanic Resurrection [боевик, триллер, криминал, 2016] Blu-ray 1080p, Dub

salma3

27 | 26

18.8 ГБ

В этой теме нет новых непрочитанных сообщений. Механик: Воскрешение / Mechanic: Resurrection [Боевик, триллер, криминал, 2016] WEBRip, Mvo [КПК ]

marya111

463 | 20

335.13 МБ

В этой теме нет новых непрочитанных сообщений. Механик: Воскрешение / Mechanic: Resurrection [боевик, триллер, криминал, 2016] BDRip-AVC, Dub+Sub [Лицензия]

salma3

276 | 64

1.45 ГБ

В этой теме нет новых непрочитанных сообщений. Механик: Воскрешение / Mechanic: Resurrection [боевик, триллер, криминал, 2016] HDRip, Dub+Sub [Лицензия]

salma3

227 | 54

746.68 МБ

В этой теме нет новых непрочитанных сообщений. Механик: Воскрешение / Mechanic: Resurrection (Боевик, триллер, криминал, 2016) BDRip от MegaPeer | A

marya111

799 | 103

1.46 ГБ

В этой теме нет новых непрочитанных сообщений. Механик: Воскрешение / Mechanic: Resurrection [Боевик, триллер, криминал, 2016] BDRip, Avo [Гаврилов]

salma3

178 | 36

1.46 ГБ

В этой теме нет новых непрочитанных сообщений. Механик: Воскрешение / Mechanic: Resurrection [боевик, триллер, криминал, 2016] BDRip-AVC, Dub+Sub [Лицензия]

salma3

539 | 130

2.18 ГБ


Начать новую тему Ответить на тему  [ 1 сообщение ] 




Для Мосгорсуда, Роскомнадзора и рекламодателей:: mosgorsud-torrent[собачка]yandex.ru