Торрент файл
скачать торрент магнет ссылка Добавлен: 07 янв 2012, 19:09
Размер: 15.08 ГБ
Сидеров: 0
Личеров: 9
Автор

СообщениеДобавлено: 07 янв 2012, 19:09 

Не в сети
Супермодератор
Аватара пользователя
Дата регистрации:
11 апр 2010, 18:10
Спасибо: 5799 / 7
Сообщения: 56779
Титаник / Titanic


Перевод: Профессиональный (полное дублирование)
Субтитры:английские, французские, испанские
Формат: 2xDVD9, DVD Video, MPEG2, AC3, DTS
Страна: США
Режиссер: Джеймс Камерон
Жанр: Мелодрама
Продолжительность: 02:00:00+01:14:00 (03:14:00)
Год выпуска: 1997

В ролях: Леонардо ДиКаприо Кейт Уинслет,Билли Зейн, Кэти Бейтс, Фрэнсис Фишер, Глория Стюарт, Билл Пэкстон, Бернард Хилл, Дэвид

Описание: История любви, которая потрясла весь мир!!! История одной из крупнейших морских катастроф в истории человечества. Из портового города Саусхэмптон отправляется в свое первое плавание самый большой в то время корабль - Титаник. Он направляется в Америку, везя с собой на борту тысячи людских надежд и судеб, среди которых 17-летняя Роза Дьюитт Букэйтер, красивая и богатая девушка, задыхающаяся в лицемерном буржуазном мире своих родителей и бедный художник-самоучка Джек. Создатели Титаника уверены в непотопляемости судна, однако злой рок посылает навстречу ему громадный айсберг. И романтическое приключение Розы и Джека перерастает в борьбу со стихией на выживание. На что способна любовь? Спасутся ли они?

Рейтинг на IMDB: 7.4/10
Рейтинг КиноПоиск.RU: 8.459
Рейтинг МРАА: PG-13

Видео: 720x480, (16:9), 23,976 кадр/сек, MPEG2 Video, ~5401 Кбит/сек
Аудио#1:Русский 48,0 КГц, Dolby AC3, 6 ch, ~448 Кбит/сек [Профессиональный (полное дублирование)]
Аудио#2:Русский48,0 КГц, Dolby DTS, 6ch, ~755 Кбит/сек [Профессиональный (двухголосый)(Гланц с подругой)]
Аудио#3:Английский 48,0 КГц, AC3, 6 ch, ~448 Кбит/сек [Оригинал]
Аудио#4:Французский 48,0 КГц, Dolby AC3, 2 ch, ~192 Кбит.сек
Аудио#5:Испанский 48,0 КГц, Dolby AC3, 2 ch, ~192 Кбит.сек

Доп. информация: Специальное российское издание (Superbit СРИ).

DVD1- первая половина фильма+ Допы ((без перевода): комментарии режиссёра Джеймса Камерона, комментарии съёмочной группы (Джон Ландау, Рэй Санчини) и актёров (Кейт Уинслет, Глория Стюарт, Льюис Абернати), коментарии исторических консультантов (Дон Линч, Дон Маршель), "Behind The Scenes" Mode (30 сцен))
DVD2 - вторая половина фильма

Видео
Идентификатор: 224 (0xE0)
Формат: MPEG Video
Версия формата: Version 2
Профиль формата: Main@Main
Параметр BVOP формата: Да
Параметр матрицы формата: По умолчанию
Продолжительность: 17 м.
Вид битрейта: Переменный
Битрейт: 5401 Кбит/сек
Номинальный битрейт: 9800 Кбит/сек
Ширина: 720 пикс.
Высота: 480 пикс.
Соотношение сторон: 16:9
Частота кадров: 23,976 кадр/сек
Стандарт вещания: Component
Цветовое пространство: YUV
Подвыборка цветности: 4:2:0
Битовая глубина: 8 бит
Тип развёртки: Прогрессивная
Порядок развёртки: 2:3 Pulldown
Метод сжатия: С потерями
Бит/(Пиксели*Кадры): 0.652
Размер потока: 676 Мбайт (66%)

Аудио #1
Идентификатор: 128 (0x80)
Формат: AC-3
Формат/Информация: Audio Coding 3
Расширение режима: CM (complete main)
Продолжительность: 17 м.
Вид битрейта: Постоянный
Битрейт: 448 Кбит/сек
Канал(ы): 6 канала(ов)
Расположение каналов: Front: L C R, Side: L R, LFE
Частота: 48,0 КГц
Битовая глубина: 16 бит
Метод сжатия: С потерями
Задержка видео: -251 мс.
Размер потока: 56,1 Мбайт (5%)

Аудио #2
Идентификатор: 130 (0x82)
Формат: AC-3
Формат/Информация: Audio Coding 3
Расширение режима: CM (complete main)
Продолжительность: 17 м.
Вид битрейта: Постоянный
Битрейт: 448 Кбит/сек
Канал(ы): 6 канала(ов)
Расположение каналов: Front: L C R, Side: L R, LFE
Частота: 48,0 КГц
Битовая глубина: 16 бит
Метод сжатия: С потерями
Задержка видео: -251 мс.
Размер потока: 56,1 Мбайт (5%)

Аудио #3
Идентификатор: 137 (0x89)
Формат: DTS
Формат/Информация: Digital Theater Systems
Продолжительность: 17 м.
Вид битрейта: Постоянный
Битрейт: 755 Кбит/сек
Канал(ы): 6 канала(ов)
Расположение каналов: Front: L C R, Side: L R, LFE
Частота: 48,0 КГц
Битовая глубина: 24 бит
Метод сжатия: С потерями
Задержка видео: -326 мс.
Размер потока: 94,5 Мбайт (9%)

Аудио #4
Идентификатор: 131 (0x83)
Формат: AC-3
Формат/Информация: Audio Coding 3
Профиль формата: Dolby Digital
Расширение режима: CM (complete main)
Продолжительность: 17 м.
Вид битрейта: Постоянный
Битрейт: 192 Кбит/сек
Канал(ы): 2 канала(ов)
Расположение каналов: Front: L R
Частота: 48,0 КГц
Битовая глубина: 16 бит
Метод сжатия: С потерями
Задержка видео: -187 мс.
Размер потока: 24,0 Мбайт (2%)

Аудио #5
Идентификатор: 132 (0x84)
Формат: AC-3
Формат/Информация: Audio Coding 3
Профиль формата: Dolby Digital
Расширение режима: CM (complete main)
Продолжительность: 17 м.
Вид битрейта: Постоянный
Битрейт: 192 Кбит/сек
Канал(ы): 2 канала(ов)
Расположение каналов: Front: L R
Частота: 48,0 КГц
Битовая глубина: 16 бит
Метод сжатия: С потерями
Задержка видео: -187 мс.
Размер потока: 24,0 Мбайт (2%)

Текст #1
Идентификатор: 32 (0x20)
Формат: RLE
Формат/Информация: Run-length encoding
Продолжительность: 17 м.
Задержка видео: 8 с. 358 мс.

Текст #2
Идентификатор: 33 (0x21)
Формат: RLE
Формат/Информация: Run-length encoding
Продолжительность: 17 м.
Задержка видео: 8 с. 358 мс.

Текст #3
Идентификатор: 224 (0xE0)-DVD-2
Формат: EIA-608
Режим смешивания: DVD-Video
Режим смешивания, доп. информаци : Muxed in Video #1
Размер потока: 0,00 байт (0%)












Поделиться:




реклама партнёра


Вернуться к началу
 Профиль Отправить личное сообщение  
 
   Похожие торренты   Автор   Торрент   Размер 
В этой теме нет новых непрочитанных сообщений. Reigns: Collector's Edition [Logic (CCG), 2016] [Steam-Rip]

Sykre

4 | 1

145.22 МБ

В этой теме нет новых непрочитанных сообщений. Contrast: Collector's Edition [Arcade (Platform), 3D, 3rd Person, 2013] [Steam-Rip]

Sykre

2 | 1

1.76 ГБ

В этой теме нет новых непрочитанных сообщений. Company of Heroes 2: Digital Collector's Edition [v.3.0.0.12781 +DLC] [Strategy, 2013] [SteamRip]

Dracon

27 | 9

11.88 ГБ

В этой теме нет новых непрочитанных сообщений. Soundgarden - Superunknown: The Singles (Limited Collector's Edition, 5CD Box Set) [2014, Grunge, Alternative Rock, MP3]

PriZraK

1 | 1

240.69 МБ

В этой теме нет новых непрочитанных сообщений. Hard West: Collector's Edition [Strategy (Turn-based, Tactical), 3D, 2015] [Steam-Rip]

Sykre

1 | 1

3.5 ГБ

В этой теме нет новых непрочитанных сообщений. Тайна женщины несущей удачу ("Титаник" Джеймс Кэмерон) [Анализ ключевых эпизодов фильма, 2012] WEBRip

vairgin

0 | 3

134.77 МБ

В этой теме нет новых непрочитанных сообщений. Dokken - Tooth And Nail (Collector's Edition, Remastered & Reloaded) [2014, Hard Rock, Heavy Metal, MP3]

PriZraK

0 | 1

125.15 МБ


Начать новую тему Ответить на тему  [ 1 сообщение ] 




Для Мосгорсуда, Роскомнадзора и рекламодателей:: mosgorsud-torrent[собачка]yandex.ru