Торрент файл
скачать торрент магнет ссылка Добавлен: 07 янв 2012, 19:09
Размер: 7.09 ГБ
Сидеров: 0
Личеров: 6
Автор

СообщениеДобавлено: 07 янв 2012, 19:09 

Не в сети
Супермодератор
Аватара пользователя
Дата регистрации:
11 апр 2010, 18:10
Спасибо: 5801 / 7
Сообщения: 56779
Уличный боец / Street Fighter: The Legend of Chun-Li

Перевод: Профессиональный (многоголосый, закадровый)
Субтитры: Русские
Формат: DVD9, DVD Video, MPEG2, AC3
Страна: США, Канада
Режиссер: Анджей Бартковяк
Жанр: фэнтези, боевик, триллер, криминал
Продолжительность: 01:32:38
Год выпуска: 2009

В ролях: Кристин Кройк, Крис Клейн, Нил МакДонаф, Робин Шоу, Мун Бладгуд, Джози Хо, Табу, Майкл Кларк Дункан, Пеи-пеи Ченг, Эдмунд Чэнь

Описание: Прекрасная Чун-Ли, владеющая искусством восточных единоборств, поклялась отомстить… Планомерно, одного за другим она убивает главарей преступных группировок, виновных в гибели своего отца.

Рейтинг на IMDB: 7.2/10
Рейтинг КиноПоиск.RU: 4.047
Рейтинг MPAA: PG-13

Видео: 720x576 (PAL 16:9 ), MPEG 2 Video, 25,000 fps, ~5284 kbps avg
Аудио #1: Русский 48 kHz, Dolby AC3, 6 ch, ~384 kbps avg [Профессиональный (многоголосый, закадровый)]
Аудио #2: Русский 48 kHz, Dolby AC3, 2 ch, ~192 kbps avg [Профессиональный (многоголосый, закадровый)]
Аудио #3: Английский 48 kHz, Dolby AC3, 6 ch, ~384 kbps avg [Оригинал]

Доп. информация:
    [Лицензионное издание, «Парадиз-ВC», PAL 16:9]
    Meню озвученное, анимированное, на русском языке, с навигацией по эпизодам. Все кнопки функциональны.
  • Бонусы: Marvel против Capcom 2: обзор; становление уличного бойца; Чун-Ли: оживляя легенду; канал Fox Movie представляет съемки сцены; воссоздавая игру: сравнение аркады и фильма; битва в черно-белом варианте: галерея раскадровок; съемки битвы: галерея производства; удаленные сцены; смотрите на DVD


Слоган: «Ее сила, ее ярость, ее месть... Станут легендой...»

Общее
Полное имя: C:\Documents and Settings\Admin.MICROSOF-68219C\Мои документы\Загрузки\Ulichniy.boez\VIDEO_TS\VTS_01_4.VOB
Формат: MPEG-PS
Размер файла: 1024 Мбайт
Продолжительность: 22 м.
Общий поток: 6391 Кбит/сек

Видео
Идентификатор: 224 (0xE0)
Формат: MPEG Video
Версия формата: Version 2
Профиль формата: Main@Main
Параметр BVOP формата: Да
Параметр матрицы формата: По умолчанию
Параметры GOP формата: M=3, N=15
Продолжительность: 22 м.
Вид битрейта: Переменный
Битрейт: 5304 Кбит/сек
Номинальный битрейт: 8500 Кбит/сек
Ширина: 720 пикс.
Высота: 576 пикс.
Соотношение сторон: 16:9
Частота кадров: 25,000 кадр/сек
Стандарт вещания: PAL
Цветовое пространство: YUV
Подвыборка цветности: 4:2:0
Битовая глубина: 8 бит
Тип развёртки: Чересстрочная
Порядок развёртки: Верхнее поле первое
Метод сжатия: С потерями
Бит/(Пиксели*Кадры): 0.512
Размер потока: 850 Мбайт (83%)

Аудио #1
Идентификатор: 128 (0x80)
Формат: AC-3
Формат/Информация: Audio Coding 3
Расширение режима: CM (complete main)
Продолжительность: 22 м.
Вид битрейта: Постоянный
Битрейт: 384 Кбит/сек
Канал(ы): 6 канала(ов)
Расположение каналов: Front: L C R, Side: L R, LFE
Частота: 48,0 КГц
Битовая глубина: 16 бит
Метод сжатия: С потерями
Задержка видео: -552 мс.
Размер потока: 61,5 Мбайт (6%)

Аудио #2
Идентификатор: 129 (0x81)
Формат: AC-3
Формат/Информация: Audio Coding 3
Расширение режима: CM (complete main)
Продолжительность: 22 м.
Вид битрейта: Постоянный
Битрейт: 192 Кбит/сек
Канал(ы): 2 канала(ов)
Расположение каналов: Front: L R
Частота: 48,0 КГц
Битовая глубина: 16 бит
Метод сжатия: С потерями
Задержка видео: -488 мс.
Размер потока: 30,8 Мбайт (3%)

Аудио #3
Идентификатор: 130 (0x82)
Формат: AC-3
Формат/Информация: Audio Coding 3
Расширение режима: CM (complete main)
Продолжительность: 22 м.
Вид битрейта: Постоянный
Битрейт: 384 Кбит/сек
Канал(ы): 6 канала(ов)
Расположение каналов: Front: L C R, Side: L R, LFE
Частота: 48,0 КГц
Битовая глубина: 16 бит
Метод сжатия: С потерями
Задержка видео: -552 мс.
Размер потока: 61,5 Мбайт (6%)

Текст
Идентификатор: 32 (0x20)
Формат: RLE
Формат/Информация: Run-length encoding









Поделиться:




реклама партнёра


Вернуться к началу
 Профиль Отправить личное сообщение  
 
   Похожие торренты   Автор   Торрент   Размер 
В этой теме нет новых непрочитанных сообщений. Уличный боец / Street Fighter: The Legend of Chun-Li [Фэнтези, Боевик, Триллер, Криминал, 2009] BDRip, Mvo

salma3

0 | 2

1.45 ГБ

В этой теме нет новых непрочитанных сообщений. Уличный боец / Street Fighter [Фантастика, боевик, триллер, 1994] BDRip, Mvo [R5]

salma3

7 | 1

1.46 ГБ

В этой теме нет новых непрочитанных сообщений. Уличный боец: Кулак убийцы / Street Fighter: Assassin's Fist [Боевик, триллер, драма, 2014] BDRip, Avo

salma3

305 | 13

2.18 ГБ

В этой теме нет новых непрочитанных сообщений. Уличный боец: Кулак убийцы / Street Fighter: Assassin's Fist [Боевик, триллер, драма, приключение, 2014] BDRip 720p, Avo+Sub

salma3

124 | 4

8.06 ГБ

В этой теме нет новых непрочитанных сообщений. Уличный боец: Кулак убийцы / Street Fighter: Assassin's Fist [Боевик, триллер, драма, приключение, 2014] BDRemux 1080i, Avo+Sub

salma3

21 | 4

34.01 ГБ

В этой теме нет новых непрочитанных сообщений. Уличный боец: Кулак убийцы / Street Fighter: Assassin's Fist [Боевик, триллер, драма, приключение, 2014] BDRip 1080p, Avo+Sub

salma3

129 | 18

12.03 ГБ

В этой теме нет новых непрочитанных сообщений. Уличный боец / Street Fighter [фантастика, боевик, комедия, приключения, 1994] HDRip, Avo

salma3

22 | 4

1.46 ГБ


Начать новую тему Ответить на тему  [ 1 сообщение ] 




Для Мосгорсуда, Роскомнадзора и рекламодателей:: mosgorsud-torrent[собачка]yandex.ru