Торрент файл
скачать торрент магнет ссылка Добавлен: 07 янв 2012, 19:09
Размер: 5.93 ГБ
Сидеров: 0
Личеров: 3
Автор

СообщениеДобавлено: 07 янв 2012, 19:09 

Не в сети
Супермодератор
Аватара пользователя
Дата регистрации:
11 апр 2010, 18:10
Спасибо: 5801 / 7
Сообщения: 56779
Ип Ман / Yip Man


Перевод: Профессиональный (многоголосый, закадровый)
Субтитры: Отсутсвуют
Формат: DVD9, DVD Video, MPEG2, AC3
Страна: Гонконг
Режиссер: Уилсон Ип
Жанр: боевик, драма, биография, история
Продолжительность: 01:46:21
Год выпуска: 2008

В ролях: Донни Йен, Саймон Ям, Сю-Вонг Фан, Ка Танг Лам, Ю Хин, Чен Зи Хуи, Саммо Хунг Кам-Бо, Хироюки Икеучи, Малика Шерават

Описание: Ип Ман — признанный мастер кунг фу, живущий в Фуошане, городе, славном своими школами боевых искусств. Ип Ман практикует Вин Чун и хотя является сильнейшим бойцом города, своей школы у него нет, и он не берет учеников. Дома он проводит лишь легкие спарринги с приятелями, чтобы указать на ошибки друг друга. Проходят годы, Китай захватывают воинственные японцы, и Ип Ман оказывается одним из немногих, кто даже в жесточайших условиях оккупации не забывает о чести, достоинстве и, конечно же, мудрости, которую несет в себе кунг фу.

Рейтинг на IMDB: 8.2/10
Рейтинг МРАА: R
Рейтинг КиноПоиск.RU: 8.204

Видео: 720x480 (NTSC 16:9), 23,976 fps, MPEG-2 Video ~ 9800 kbps avg
Аудио: Русский: 48 kHz, AC3 Dolby Digital, 6 ch, ~ 384 kbps avg [Профессиональный (многоголосый, закадровый)]

Доп.информация: [ Лицензионное издание "Флагман Трейд"]
Meню озвученное, статичное, на русском языке, с навигацией по эпизодам. Все кнопки функциональны.


Общее
Полное имя: D:\DVD\Ип Ман\VIDEO_TS\VTS_01_1.VOB
Формат: MPEG-PS
Размер файла: 1024 Мбайт
Продолжительность: 20 м.
Общий поток: 7058 Кбит/сек

Видео
Идентификатор: 224 (0xE0)
Формат: MPEG Video
Версия формата: Version 2
Профиль формата: Main@Main
Параметр BVOP формата: Да
Параметр матрицы формата: По умолчанию
Продолжительность: 20 м.
Вид битрейта: Переменный
Битрейт: 6534 Кбит/сек
Номинальный битрейт: 9800 Кбит/сек
Ширина: 720 пикс.
Высота: 480 пикс.
Соотношение сторон: 16:9
Частота кадров: 23,976 кадр/сек
Стандарт вещания: NTSC
Цветовое пространство: YUV
Подвыборка цветности: 4:2:0
Битовая глубина: 8 бит
Тип развёртки: Прогрессивная
Порядок развёртки: 2:3 Pulldown
Метод сжатия: С потерями
Бит/(Пиксели*Кадры): 0.789
Размер потока: 948 Мбайт (93%)

Аудио
Идентификатор: 128 (0x80)
Формат: AC-3
Формат/Информация: Audio Coding 3
Расширение режима: CM (complete main)
Продолжительность: 20 м.
Вид битрейта: Постоянный
Битрейт: 384 Кбит/сек
Канал(ы): 6 канала(ов)
Расположение каналов: Front: L C R, Side: L R, LFE
Частота: 48,0 КГц
Битовая глубина: 16 бит
Метод сжатия: С потерями
Размер потока: 55,7 Мбайт (5%)















Поделиться:




реклама партнёра


Вернуться к началу
 Профиль Отправить личное сообщение  
 
   Похожие торренты   Автор   Торрент   Размер 
В этой теме нет новых непрочитанных сообщений. Голод / Hunger [драма, биография, история, 2008] BDRemux 1080p, Avo

salma3

7 | 3

27.74 ГБ

В этой теме нет новых непрочитанных сообщений. Ип Ман 3 / Yip Man 3 / Ip Man 3 [Боевик, драма, биография, история, 2015] BDRip, Mvo

salma3

23 | 7

1.46 ГБ

В этой теме нет новых непрочитанных сообщений. Ип Ман 3D / Yip Man 3 [боевик, драма, биография, история, 2015] BDRip 1080p, Mvo

salma3

1515 | 146

6.63 ГБ

В этой теме нет новых непрочитанных сообщений. Ип Ман 3D / Yip Man 3 [боевик, драма, биография, история, 2015] BDRip 720p, Mvo

salma3

1277 | 74

4.46 ГБ

В этой теме нет новых непрочитанных сообщений. Воздушная перевозка / Airlift [боевик, триллер, драма, биография, история, 2016] DVDRip, Mvo

salma3

1046 | 52

1.45 ГБ

В этой теме нет новых непрочитанных сообщений. Храброе сердце / Braveheart [боевик, драма, военный, биография, история, 1995] Blu-Ray, Dub+Sub [Лицензия]

salma3

61 | 67

37.24 ГБ

В этой теме нет новых непрочитанных сообщений. В сердце моря / In the Heart of the Sea [боевик, триллер, драма, приключения, биография, история, 2015] TS, dub

yurban

11350 | 985

1.46 ГБ


Начать новую тему Ответить на тему  [ 1 сообщение ] 




Для Мосгорсуда, Роскомнадзора и рекламодателей:: mosgorsud-torrent[собачка]yandex.ru