Торрент файл
скачать торрент магнет ссылка Добавлен: 07 янв 2012, 19:09
Размер: 7.29 ГБ
Сидеров: 0
Личеров: 4
Автор

СообщениеДобавлено: 07 янв 2012, 19:09 

Не в сети
Супермодератор
Аватара пользователя
Дата регистрации:
11 апр 2010, 18:10
Спасибо: 5802 / 7
Сообщения: 56779
Где скрывается правда / Where the Truth Lies


Перевод: Профессиональный (полное дублирование)
Субтитры: Русские
Формат: DVD9, DVD Video, MPEG2, AC3, DTS
Страна: Канада, Великобритания
Режиссер: Атом Эгоян
Жанр: триллер, драма, детектив
Продолжительность: 01:42:53
Год выпуска: 2005

В ролях: Кевин Бэйкон, Колин Ферт, Элисон Ломан, Дэвид Хейман, Рэйчел Бланчард, Мори Чайкин, Соня Беннетт, Кристин Адамс, Дебора Гроувер, Бо Старр

Описание: Молодая журналистка, заинтересовавшаяся давним инцидентом, который разрушил знаменитейший комедийный шоу-дуэт Америки, оказывается вовлеченной в загадочную историю, полную тайн, страсти, вожделения и предательств…

Рейтинг на IMDB: 6.6/10
Рейтинг МРАА: R
Рейтинг КиноПоиск.RU: 6.919

Видео: 720x576 (PAL 2,35:1), 25,000 fps, MPEG-2 Video ~ 9800 kbps avg
Аудио #1: Русский: 48 kHz, AC3 Dolby Digital, 6 ch, ~ 384 kbps avg [Профессиональный (полное дублирование)]
Аудио #2: Английский: 48 kHz, AC3 Dolby Digital, 6 ch, ~ 384 kbps avg [Оргинал]
Аудио #3: Русский: 48 kHz, DTS Dolby Digital, 6 ch, ~ 1510 kbps avg [Профессиональный (полное дублирование)]

Доп.информация: [ Лицензионное издание «West Video»]
Meню озвученное, частично анимированное, на русском языке, с навигацией по эпизодам. Все кнопки функциональны.


Общее
Полное имя: D:\DVD\Где скрывается правда\VIDEO_TS\VTS_11_3.VOB
Формат: MPEG-PS
Размер файла: 1024 Мбайт
Продолжительность: 17 м.
Общий поток: 8080 Кбит/сек

Видео
Идентификатор: 224 (0xE0)
Формат: MPEG Video
Версия формата: Version 2
Профиль формата: Main@Main
Параметр BVOP формата: Да
Параметр матрицы формата: По умолчанию
Параметры GOP формата: M=2, N=12
Продолжительность: 17 м.
Вид битрейта: Переменный
Битрейт: 5641 Кбит/сек
Номинальный битрейт: 9800 Кбит/сек
Ширина: 720 пикс.
Высота: 576 пикс.
Соотношение сторон: 2,35:1
Частота кадров: 25,000 кадр/сек
Стандарт вещания: PAL
Цветовое пространство: YUV
Подвыборка цветности: 4:2:0
Битовая глубина: 8 бит
Тип развёртки: Чересстрочная
Порядок развёртки: Нижнее поле первое
Метод сжатия: С потерями
Бит/(Пиксели*Кадры): 0.544
Размер потока: 715 Мбайт (70%)

Аудио #1
Идентификатор: 128 (0x80)
Формат: AC-3
Формат/Информация: Audio Coding 3
Расширение режима: CM (complete main)
Продолжительность: 17 м.
Вид битрейта: Постоянный
Битрейт: 384 Кбит/сек
Канал(ы): 6 канала(ов)
Расположение каналов: Front: L C R, Side: L R, LFE
Частота: 48,0 КГц
Битовая глубина: 16 бит
Метод сжатия: С потерями
Задержка видео: -408 мс.
Размер потока: 48,7 Мбайт (5%)

Аудио #2
Идентификатор: 129 (0x81)
Формат: AC-3
Формат/Информация: Audio Coding 3
Расширение режима: CM (complete main)
Продолжительность: 17 м.
Вид битрейта: Постоянный
Битрейт: 384 Кбит/сек
Канал(ы): 6 канала(ов)
Расположение каналов: Front: L C R, Side: L R, LFE
Частота: 48,0 КГц
Битовая глубина: 16 бит
Метод сжатия: С потерями
Задержка видео: -408 мс.
Размер потока: 48,7 Мбайт (5%)

Аудио #3
Идентификатор: 138 (0x8A)
Формат: DTS
Формат/Информация: Digital Theater Systems
Продолжительность: 17 м.
Вид битрейта: Постоянный
Битрейт: 1510 Кбит/сек
Канал(ы): 6 канала(ов)
Расположение каналов: Front: L C R, Side: L R, LFE
Частота: 48,0 КГц
Битовая глубина: 24 бит
Метод сжатия: С потерями
Задержка видео: -472 мс.
Размер потока: 191 Мбайт (19%)

Текст
Идентификатор: 32 (0x20)
Формат: RLE
Формат/Информация: Run-length encoding
Продолжительность: 17 м.
Задержка видео: 200 мс.



















Поделиться:




реклама партнёра


Вернуться к началу
 Профиль Отправить личное сообщение  
 
   Похожие торренты   Автор   Торрент   Размер 
В этой теме нет новых непрочитанных сообщений. Пленница / The Captive (Атом Эгоян) [триллер, драма, 2014] HDRip, Mvo

Dracon

749 | 25

2.06 ГБ

В этой теме нет новых непрочитанных сообщений. Пленница / The Captive (Атом Эгоян) [триллер, драма, 2014] HDRip, Mvo

Dracon

3428 | 108

1.46 ГБ

В этой теме нет новых непрочитанных сообщений. Пленница / The Captive (Атом Эгоян) [триллер, драма, 2014] BDRip 720p, Mvo

Dracon

533 | 32

6.61 ГБ

В этой теме нет новых непрочитанных сообщений. Помнить / Remember (Атом Эгоян / Atom Egoyan) [2015г., Канада, драма, триллер, HDRip] MVO

Alfredovich

90 | 12

1.22 ГБ

В этой теме нет новых непрочитанных сообщений. Разная ложь / Separate Lies [триллер, драма, мелодрама, 2005] HDTVRip, Mvo

salma3

47 | 7

1.28 ГБ

В этой теме нет новых непрочитанных сообщений. Тайны и ложь / Secrets & Lies / 1 сезон 1-10 серии из 10 [триллер, драма, детектив, 2015] WEB-DLRip, Dub [Кириллица]

salma3

230 | 39

7.23 ГБ

В этой теме нет новых непрочитанных сообщений. One Machine - The Distortion Of Lies And The Overdriven Truth [2014, Thrash Metal, Heavy Metal, MP3]

PriZraK

0 | 1

120.53 МБ


Начать новую тему Ответить на тему  [ 1 сообщение ] 




Для Мосгорсуда, Роскомнадзора и рекламодателей:: mosgorsud-torrent[собачка]yandex.ru