Торрент файл
скачать торрент магнет ссылка Добавлен: 07 янв 2012, 19:09
Размер: 5.98 ГБ
Сидеров: 3
Личеров: 3
Автор

СообщениеДобавлено: 07 янв 2012, 19:09 

Не в сети
Супермодератор
Аватара пользователя
Дата регистрации:
11 апр 2010, 18:10
Спасибо: 5802 / 7
Сообщения: 56779
Правила секса / The Rules of Attraction


Перевод: Профессиональный (полное дублирование)
Субтитры: Русские
Формат: DVD9, DVD Video, MPEG2, AC3
Страна: США, Германия
Режиссер: Роджер Эвэри
Жанр: триллер, драма, мелодрама, комедия
Продолжительность: 01:46:10
Год выпуска: 2002

В ролях: Джеймс Ван Дер Бик, Шаннин Соссамон, Джессика Бил, Кип Парду, Кейт Босворт, Иен Сомерхолдер, Джоэль Майкли, Джей Барушель, Томас Йен Николас, Клифтон Коллинз мл.

Описание: Резкая и проницательная комедия о жизни и любви молодых и привилегированных. Человеческая природа устанавливает, что в несовершенном мире всегда действуют законы тяготения. А среди студентов Камдена главным законом является: «Никаких правил и законов».

Рейтинг на IMDB: 6.7/10
Рейтинг МРАА: R
Рейтинг КиноПоиск.RU: 6.800

Видео: 720x576 (PAL 16:9), 25,000 fps, MPEG-2 Video ~ 8300 kbps avg
Аудио #1: Русский: 48 kHz, AC3 Dolby Digital, 6 ch, 384 kbps avg [Профессиональный (полное дублирование)]
Аудио #2: Английский: 48 kHz, AC3 Dolby Digital, 6 ch, 384 kbps avg [Оригинал]

Слоган: «Следуй инстинктам»

Доп.информация: [ Лицензионное издание «Videogram»]
Meню озвученное, частично анимированное, на русском языке, с навигацией по эпизодам. Все кнопки функциональны.


Общее
Полное имя: D:\DVD\Правила секса\VIDEO_TS\VTS_01_2.VOB
Формат: MPEG-PS
Размер файла: 1024 Мбайт
Продолжительность: 22 м.
Общий поток: 6292 Кбит/сек

Видео
Идентификатор: 224 (0xE0)
Формат: MPEG Video
Версия формата: Version 2
Профиль формата: Main@Main
Параметр BVOP формата: Да
Параметр матрицы формата: По умолчанию
Продолжительность: 22 м.
Вид битрейта: Переменный
Битрейт: 5399 Кбит/сек
Номинальный битрейт: 8300 Кбит/сек
Ширина: 720 пикс.
Высота: 576 пикс.
Соотношение сторон: 16:9
Частота кадров: 25,000 кадр/сек
Стандарт вещания: PAL
Цветовое пространство: YUV
Подвыборка цветности: 4:2:0
Битовая глубина: 8 бит
Тип развёртки: Чересстрочная
Порядок развёртки: Верхнее поле первое
Метод сжатия: С потерями
Бит/(Пиксели*Кадры): 0.521
Размер потока: 878 Мбайт (86%)

Аудио #1
Идентификатор: 128 (0x80)
Формат: AC-3
Формат/Информация: Audio Coding 3
Расширение режима: CM (complete main)
Продолжительность: 22 м.
Вид битрейта: Постоянный
Битрейт: 384 Кбит/сек
Канал(ы): 6 канала(ов)
Расположение каналов: Front: L C R, Side: L R, LFE
Частота: 48,0 КГц
Битовая глубина: 16 бит
Метод сжатия: С потерями
Задержка видео: -512 мс.
Размер потока: 62,5 Мбайт (6%)

Аудио #2
Идентификатор: 129 (0x81)
Формат: AC-3
Формат/Информация: Audio Coding 3
Расширение режима: CM (complete main)
Продолжительность: 22 м.
Вид битрейта: Постоянный
Битрейт: 384 Кбит/сек
Канал(ы): 6 канала(ов)
Расположение каналов: Front: L C R, Side: L R, LFE
Частота: 48,0 КГц
Битовая глубина: 16 бит
Метод сжатия: С потерями
Задержка видео: -512 мс.
Размер потока: 62,5 Мбайт (6%)

Текст #1
Идентификатор: 33 (0x21)
Формат: RLE
Формат/Информация: Run-length encoding
Продолжительность: 22 м.
Задержка видео: 880 мс.



















Поделиться:




реклама партнёра


Вернуться к началу
 Профиль Отправить личное сообщение  
 
   Похожие торренты   Автор   Торрент   Размер 
В этой теме нет новых непрочитанных сообщений. Правила секса / The Rules of Attraction [Комедия, мелодрама, драма, триллер, 2002] BDRip 720p, Dub

salma3

48 | 4

3.74 ГБ

В этой теме нет новых непрочитанных сообщений. Правила совместной жизни / Rules of Engagement [S07х01-13] [Комедия, мелодрама, 2013] WEB-DL 1080p. Mvo+Dvo

salma3

3 | 2

11.11 ГБ

В этой теме нет новых непрочитанных сообщений. Правила виноделов / The Cider House Rules [Драма, мелодрама, 1999] BDRip 720p, Dub+Sub

salma3

14 | 3

8.61 ГБ

В этой теме нет новых непрочитанных сообщений. Правила боя / Rules of Engagement [боевик, драма, военный, 2000] BDRip 1080p, Dub+Sub

salma3

7 | 5

11.29 ГБ

В этой теме нет новых непрочитанных сообщений. Мамин дом,мамины правила / Mom's House, Mom's Rules (2014) WEB-DLRip[720p]

shans5

4 | 4

1.8 ГБ

В этой теме нет новых непрочитанных сообщений. Attraction 65 - Attraction 65 [2003, Melodic Hard Rock, MP3]

PriZraK

0 | 1

116.77 МБ

В этой теме нет новых непрочитанных сообщений. Дружба и никакого секса? / What If [драма, мелодрама, комедия, 2013] HDTVRip, dub [Звук с TS]

Dracon

1351 | 20

1.37 ГБ


Начать новую тему Ответить на тему  [ 1 сообщение ] 




Для Мосгорсуда, Роскомнадзора и рекламодателей:: mosgorsud-torrent[собачка]yandex.ru