Торрент файл
скачать торрент магнет ссылка Добавлен: 07 янв 2012, 19:09
Размер: 7.04 ГБ
Сидеров: 0
Личеров: 7
Автор

СообщениеДобавлено: 07 янв 2012, 19:09 

Не в сети
Супермодератор
Аватара пользователя
Дата регистрации:
11 апр 2010, 18:10
Спасибо: 5798 / 7
Сообщения: 56779
Праздник любви / Feast of Love


Перевод: Профессиональный (полное дублирование)
Субтитры: Русские
Формат: DVD9, DVD Video, MPEG2, AC3
Страна: США
Режиссер: Роберт Бентон
Жанр: драма, мелодрама, комедия
Продолжительность: 01:37:23
Год выпуска: 2007

В ролях: Морган Фриман, Грег Киннер, Рада Митчел, Билли Бёрк, Сэльма Блэр, Алекса Давалос, Тоби Хемингуэй, Стана Катик, Эрика Марожан, Джейн Александр

Описание: Неужели я не одинок? Что такое любовь? Как научиться любить? Ответы на эти вопросы ищут герои фильма. Обыкновенные люди из обыкновенного городка штата Орегон собираются в маленький кружок под руководством Гарри Скотта, чтобы разобраться в самом загадочном, что есть в жизни — в таинстве любви.

Но никто не знает, что всезнающий профессор вот уже много лет бередит свою сердечную рану — он, Гарри Скотт, респектабельный доктор философии из Орегона, винит себя в гибели сына. Может, поэтому он ставит перед собой задачу научить людей любить друг друга, здесь и сейчас? Может, поэтому Гарри хочет помочь тем, кто одинок в этом мире, тем, кто потерял свою любовь и тем, кто только-только попал во власть этого великого чувства? Впрочем, это уже не важно, потому что у всех на глазах, сплетаясь в пестрый гобелен, расцветают нежные и экзотические цветы любви. Их воплощения, магические и мистические, ранят и одновременно исцеляют. Теперь главное — не дать им погибнуть.


Рейтинг на IMDB: 6.7/10
Рейтинг МРАА: R
Рейтинг КиноПоиск.RU: 7.556

Видео: 720x576 (PAL 16:9), 25,000 fps, MPEG-2 Video ~ 8000 kbps avg
Аудио #1: Русский: 48 kHz, AC3 Dolby Digital, 6 ch, 448 kbps avg [Профессиональный (полное дублирование)]
Аудио #2: Русский: 48 kHz, DTS Dolby Digital, 6 ch, 755 kbps avg [Профессиональный (полное дублирование)]

Слоган: «История для каждого, кому знаком вкус любви...»

Доп.информация: [ Лицензионное издание «Парадиз Видео»]
Meню озвученное, частично анимированное, на русском языке, с навигацией по эпизодам. Все кнопки функциональны.


Общее
Полное имя: D:\DVD\Праздник любви\VIDEO_TS\VTS_01_2.VOB
Формат: MPEG-PS
Размер файла: 1024 Мбайт
Продолжительность: 17 м.
Общий поток: 8360 Кбит/сек

Видео
Идентификатор: 224 (0xE0)
Формат: MPEG Video
Версия формата: Version 2
Профиль формата: Main@Main
Параметр BVOP формата: Да
Параметр матрицы формата: По умолчанию
Продолжительность: 17 м.
Вид битрейта: Переменный
Битрейт: 6991 Кбит/сек
Номинальный битрейт: 8000 Кбит/сек
Ширина: 720 пикс.
Высота: 576 пикс.
Соотношение сторон: 16:9
Частота кадров: 25,000 кадр/сек
Стандарт вещания: PAL
Цветовое пространство: YUV
Подвыборка цветности: 4:2:0
Битовая глубина: 8 бит
Тип развёртки: Чересстрочная
Порядок развёртки: Верхнее поле первое
Метод сжатия: С потерями
Бит/(Пиксели*Кадры): 0.674
Размер потока: 856 Мбайт (84%)

Аудио #1
Идентификатор: 128 (0x80)
Формат: AC-3
Формат/Информация: Audio Coding 3
Расширение режима: CM (complete main)
Продолжительность: 17 м.
Вид битрейта: Постоянный
Битрейт: 448 Кбит/сек
Канал(ы): 6 канала(ов)
Расположение каналов: Front: L C R, Side: L R, LFE
Частота: 48,0 КГц
Битовая глубина: 16 бит
Метод сжатия: С потерями
Задержка видео: -280 мс.
Размер потока: 54,8 Мбайт (5%)

Аудио #2
Идентификатор: 137 (0x89)
Формат: DTS
Формат/Информация: Digital Theater Systems
Продолжительность: 17 м.
Вид битрейта: Постоянный
Битрейт: 755 Кбит/сек
Канал(ы): 6 канала(ов)
Расположение каналов: Front: L C R, Side: L R, LFE
Частота: 48,0 КГц
Битовая глубина: 24 бит
Метод сжатия: С потерями
Задержка видео: -333 мс.
Размер потока: 92,4 Мбайт (9%)



















Поделиться:




реклама партнёра


Вернуться к началу
 Профиль Отправить личное сообщение  
 
   Похожие торренты   Автор   Торрент   Размер 
В этой теме нет новых непрочитанных сообщений. Сумасшедший вид любви / Crazy Kind of Love [драма, мелодрама, комедия, 2013] HDRip, avo

Dracon

274 | 11

1.46 ГБ

В этой теме нет новых непрочитанных сообщений. Сумасшедший вид любви / Crazy Kind of Love (Сара Сигель-Магнесс / Sarah Siegel-Magness) [2013г., драма, мелодрама, комедия, BDRip 1080p] avo

Alfredovich

84 | 5

3.38 ГБ

В этой теме нет новых непрочитанных сообщений. Страна любви / The Republic of Love [мелодрама, комедия, 2003] DVDRip, Mvo

salma3

30 | 4

1.37 ГБ

В этой теме нет новых непрочитанных сообщений. Кулинарная книга любви / The Food Guide To Love [мелодрама, комедия, 2013] HDRip, Avo

Dracon

134 | 7

1.46 ГБ

В этой теме нет новых непрочитанных сообщений. Анатомия любви / Endless Love [драма, мелодрама, 2014] Blu-ray 1080p, Dub+Sub

salma3

14 | 4

40.04 ГБ

В этой теме нет новых непрочитанных сообщений. Богатство в любви / Rich in Love [драма, мелодрама, 1992] HDTVRip 720p, Dvo

salma3

30 | 37

2.8 ГБ

В этой теме нет новых непрочитанных сообщений. Лицо любви / The Face of Love [Драма, мелодрама, 2013] BDRip 1080p, Mvo

salma3

84 | 44

6.44 ГБ


Начать новую тему Ответить на тему  [ 1 сообщение ] 




Для Мосгорсуда, Роскомнадзора и рекламодателей:: mosgorsud-torrent[собачка]yandex.ru