Торрент файл
скачать торрент магнет ссылка Добавлен: 07 янв 2012, 19:08
Размер: 7.94 ГБ
Сидеров: 0
Личеров: 6
Автор

СообщениеДобавлено: 07 янв 2012, 19:08 

Не в сети
Супермодератор
Аватара пользователя
Дата регистрации:
11 апр 2010, 18:10
Спасибо: 5802 / 7
Сообщения: 56779
Сайлент Хилл / Silent Hill


Перевод: Профессиональный (полное дублирование)
Субтитры: Русские, английские, китайские
Формат: DVD9, DVD Video, MPEG2, AC3, DTS
Страна: США, Канада, Франция, Япония
Режиссер: Кристоф Ганс
Жанр: ужасы, фэнтези, триллер, драма, детектив
Продолжительность: 02:05:12
Год выпуска: 2006

В ролях: Рада Митчел, Шон Бин, Лори Холден, Дебора Кара Ангер, Ким Коутс, Таня Аллен, Элис Крайдж, Джоделль Ферланд, Коллин Уильямс, Рон Гэбриел, Ив Кроуфорд, Дерек Ритшель, Аманда Хэйберт, Никки Гуаданьи, Максин Дюмон, Кристофер Бриттон, Стивен Харт, Саймон Ричардс, Йен Уайт, Элизабет Харпур, Джанет Лэнд, Флоренс МакГрегор, Линн Вудман, Ханна Флеминг, Холли Макарчук, Татьяна Хаас, Роберто Кампанелла, Майкл Кота, Ивонн ЭнДжи, Лорри Айерс, Эмили Линехэм, Донна Милберн, Надя Бароссо, Ноэль Боджио, Виктория Боланд, Рослинни Багэй, Алисия Банди, Кэрри Клэйтон, Рэйчел Краузер

Описание: Молодая мать, отчаявшись найти лекарство от таинственного заболевания своей дочери Шэрон, отказывается отдать ее в психиатрическую лечебницу. Вместе с Шэрон она отправляется в Сайлент Хилл, город, название которого ее дочь постоянно твердит во сне.

Несмотря на сопротивление мужа, Роуз убеждена, что найдет там ответы, в которых так нуждается. Но когда они подъезжают к заброшенному городу, на дороге появляется таинственная фигура, Роуз резко тормозит, и машина попадает в аварию… Придя в себя, она обнаруживает, что Шэрон исчезла…

В компании упрямой женщины-полицейской из городка неподалеку Роуз отправляется на поиски своего ребенка в Сайлент Хилл, место, непохожее ни на одно другое: город покрыт туманом, его населяют странные, проклятые создания, и время от времени он погружается во Мрак, который буквально меняет все, к чему прикасается…

В поисках дочери Роуз узнает об истории Сайлент Хилла, его пуританском прошлом, полном насилия, и причинах проклятия, висящего над городом. Она понимает, ее ребенок - лишь часть большой, ужасающей головоломки…


Рейтинг на IMDB: 6.5/10
Рейтинг МРАА: R
Рейтинг КиноПоиск.RU: 7.199

Видео: 720x480 (NTSC 16:9), 29,970 fps, MPEG-2 Video ~ 5412 kbps avg
Аудио #1: Русский: 48 kHz, AC3 Dolby Digital, 6 ch, ~ 448 kbps avg [Профессиональный (полное дублирование)]
Аудио #2: Русский: 48 kHz, DTS Dolby Digital, 6 ch, ~ 755 kbps avg [Авторский (одноголосый) (Ю. Немахов)]
Аудио #3: Английский: 48 kHz, DTS Dolby Digital, 6 ch, ~ 1510 kbps avg [Оригинал]

Слоган: Мы ждали тебя...

Доп.информация: [Издание «Киномания»]
Meню озвученное, частично анимированное, на английском языке, с навигацией по эпизодам. Все кнопки функциональны.


Общее
Полное имя: D:\DVD\Сайлент Хилл\VIDEO_TS\VTS_01_5.VOB
Формат: MPEG-PS
Размер файла: 1024 Мбайт
Продолжительность: 17 м.
Общий поток: 8289 Кбит/сек

Видео
Идентификатор: 224 (0xE0)
Формат: MPEG Video
Версия формата: Version 2
Профиль формата: Main@Main
Параметр BVOP формата: Да
Параметр матрицы формата: По умолчанию
Продолжительность: 17 м.
Вид битрейта: Переменный
Битрейт: 5412 Кбит/сек
Ширина: 720 пикс.
Высота: 480 пикс.
Соотношение сторон: 16:9
Частота кадров: 29,970 кадр/сек
Стандарт вещания: NTSC
Цветовое пространство: YUV
Подвыборка цветности: 4:2:0
Битовая глубина: 8 бит
Метод сжатия: С потерями
Бит/(Пиксели*Кадры): 0.523
Размер потока: 668 Мбайт (65%)

Аудио #1
Идентификатор: 128 (0x80)
Формат: AC-3
Формат/Информация: Audio Coding 3
Расширение режима: CM (complete main)
Продолжительность: 17 м.
Вид битрейта: Постоянный
Битрейт: 448 Кбит/сек
Канал(ы): 6 канала(ов)
Расположение каналов: Front: L C R, Side: L R, LFE
Частота: 48,0 КГц
Битовая глубина: 16 бит
Метод сжатия: С потерями
Задержка видео: -293 мс.
Размер потока: 55,3 Мбайт (5%)

Аудио #2
Идентификатор: 137 (0x89)
Формат: DTS
Формат/Информация: Digital Theater Systems
Продолжительность: 17 м.
Вид битрейта: Постоянный
Битрейт: 755 Кбит/сек
Канал(ы): 6 канала(ов)
Расположение каналов: Front: L C R, Side: L R, LFE
Частота: 48,0 КГц
Битовая глубина: 24 бит
Метод сжатия: С потерями
Задержка видео: -315 мс.
Размер потока: 93,2 Мбайт (9%)

Аудио #3
Идентификатор: 138 (0x8A)
Формат: DTS
Формат/Информация: Digital Theater Systems
Профиль формата: ES
Продолжительность: 17 м.
Вид битрейта: Постоянный
Битрейт: 1510 Кбит/сек
Канал(ы): 6 канала(ов)
Расположение каналов: Front: L C R, Side: L R, LFE
Частота: 48,0 КГц
Битовая глубина: 16 бит
Метод сжатия: С потерями
Задержка видео: -336 мс.
Размер потока: 186 Мбайт (18%)

Текст
Идентификатор: 33 (0x21)
Формат: RLE
Формат/Информация: Run-length encoding
Задержка видео: 1 с. 218 мс.



















Поделиться:




реклама партнёра


Вернуться к началу
 Профиль Отправить личное сообщение  
 
   Похожие торренты   Автор   Торрент   Размер 
В этой теме нет новых непрочитанных сообщений. Галлоуз Хилл / Gallows Hill / The Damned [ужасы, триллер, детектив, 2013] HDRip, dub [Чистый звук]

Dracon

64 | 1

1.43 ГБ

В этой теме нет новых непрочитанных сообщений. Галлоуз Хилл / Gallows Hill / The Damned [ужасы, триллер, детектив, 2013] BDRip 720p, dub [Чистый звук]

Dracon

15 | 1

3.51 ГБ

В этой теме нет новых непрочитанных сообщений. Галлоуз Хилл / Gallows Hill / The Damned (Виктор Гарсия) [ужасы, триллер, детектив, 2013] BDRip 1080p, dub [Чистый звук]

Dracon

40 | 4

5.82 ГБ

В этой теме нет новых непрочитанных сообщений. Красавица и чудовище / La belle et la bête (Кристоф Ганс) [фэнтези, мелодрама, 2014] BDRip-AVC, Dub+Sub

Dracon

363 | 270

2.13 ГБ

В этой теме нет новых непрочитанных сообщений. Красавица и чудовище / La belle et la bête (Кристоф Ганс) [фэнтези, мелодрама, 2014] BDRip 720p, Dub+Sub

Dracon

159 | 337

4.22 ГБ

В этой теме нет новых непрочитанных сообщений. Красавица и чудовище / La belle et la bête (Кристоф Ганс) [2014, фэнтези, мелодрама, HDRip] Dub Звук с TS

Nickolas3435

1819 | 19

1.36 ГБ

В этой теме нет новых непрочитанных сообщений. Красавица и чудовище / La belle et la bête (Кристоф Ганс) [фэнтези, мелодрама, 2014] Blu-Ray Remux 1080p, Dub+Sub

Dracon

58 | 7

27.2 ГБ


Начать новую тему Ответить на тему  [ 1 сообщение ] 




Для Мосгорсуда, Роскомнадзора и рекламодателей:: mosgorsud-torrent[собачка]yandex.ru