Торрент файл
скачать торрент магнет ссылка Добавлен: 07 янв 2012, 19:08
Размер: 6.83 ГБ
Сидеров: 3
Личеров: 4
Автор

СообщениеДобавлено: 07 янв 2012, 19:08 

Не в сети
Супермодератор
Аватара пользователя
Дата регистрации:
11 апр 2010, 18:10
Спасибо: 5799 / 7
Сообщения: 56779
Охотник за головами / The Bounty Hunter

Перевод: Профессиональный (полное дублирование)
Субтитры: Английские, чешские, венгерские, польские, арабские, болгарские, хорватские, эстонские, греческие, иврит, хинди, исландские, литовские, румынские, сербские, словатские, словенские, турецкие
Формат: DVD9, DVD Video, MPEG2, AC3
Страна: США
Режиссер: Энди Теннант
Жанр: Боевик, комедия, криминал
Продолжительность: 01:46:07
Год выпуска: 2010

В ролях: Джерард Батлер, Дженнифер Энистон, Джио Перез, Джоэль Гарлэнд, Джейсон Колотурос, Мэтт Мэллой, Джейсон Судейкис, Адам Роуз, Кристин Барански, Дориан Миссик ...

Роли дублировали: Пётр Иващенко, Полина Щербакова, Михаил Георгиу, Олег Форостенко, Константин Карасик ...

Описание: Главный герой — Майло, бывший полицейский, а теперь охотник за головами, занимающийся розыском беглых преступников. Он получает задание найти и отправить в тюрьму журналистку Николь, сбежавшую из-под залога. Ирония ситуации в том, что Николь — бывшая жена Майло.

Рейтинг на КиноПоиск: 6.389 (18 107)
Рейтинг на IMDb: 5.1/10
Рейтинг MPAA: PG-13

Видео: 720х576 (PAL 16:9), 25.000fps, MPEG-2 Video, ~ 9 800Kbps avg
Аудио#1: Английский 48.0KHz, AC-3, 6 ch, ~ 448Kbps avg[Оригинал]
Аудио#2: Чешский 48.0KHz, AC-3, 6 ch, ~ 384Kbps avg
Аудио#3: Венгерский 48.0KHz, AC-3, 6 ch, ~ 384Kbps avg
Аудио#4: Польский 48.0KHz, AC-3, 2 ch, ~ 192Kbps avg
Аудио#5: Русский 48.0KHz, AC-3, 6 ch, ~ 384Kbps avg[Профессиональный (полное дублирование)]

Cлоган: «Решаю вопросы... Интим не предлагать.»

Трейлер к фильму
General
Complete name: D:\загрузка\the_bounty_hunter_[tfile.ru]\VIDEO_TS\VTS_01_3.VOB
Format: MPEG-PS
File size: 1 024 MiB
Duration: 20mn 13s
Overall bit rate: 7 076 Kbps

Video
ID: 224 (0xE0)
Format: MPEG Video
Format version: Version 2
Format profile: Main@Main
Format settings, Matrix: Default
Duration: 20mn 13s
Bit rate mode: Variable
Bit rate: 5 003 Kbps
Nominal bit rate: 9 800 Kbps
Width: 720 pixels
Height: 576 pixels
Display aspect ratio: 16/9
Frame rate: 25.000 fps
Standard: PAL
Colorimetry: 4:2:0
Scan type: Progressive
Scan order: Top Field First
Bits/(Pixel*Frame): 0.483
Stream size: 724 MiB (71%)

Audio #1
ID: 128 (0x80)
Format: AC-3
Format/Info: Audio Coding 3
Duration: 20mn 13s
Bit rate mode: Constant
Bit rate: 448 Kbps
Channel(s): 6 channels
Channel positions: Front: L C R, Surround: L R, LFE
Sampling rate: 48.0 KHz
Video delay: -608ms
Stream size: 64.8 MiB (6%)

Audio #2
ID: 129 (0x81)
Format: AC-3
Format/Info: Audio Coding 3
Duration: 20mn 13s
Bit rate mode: Constant
Bit rate: 384 Kbps
Channel(s): 6 channels
Channel positions: Front: L C R, Surround: L R, LFE
Sampling rate: 48.0 KHz
Video delay: -608ms
Stream size: 55.6 MiB (5%)

Audio #3
ID: 130 (0x82)
Format: AC-3
Format/Info: Audio Coding 3
Duration: 20mn 13s
Bit rate mode: Constant
Bit rate: 384 Kbps
Channel(s): 6 channels
Channel positions: Front: L C R, Surround: L R, LFE
Sampling rate: 48.0 KHz
Video delay: -608ms
Stream size: 55.6 MiB (5%)

Audio #4
ID: 131 (0x83)
Format: AC-3
Format/Info: Audio Coding 3
Format profile: Dolby Digital
Duration: 20mn 13s
Bit rate mode: Constant
Bit rate: 192 Kbps
Channel(s): 2 channels
Channel positions: L R
Sampling rate: 48.0 KHz
Video delay: -608ms
Stream size: 27.8 MiB (3%)

Audio #5
ID: 132 (0x84)
Format: AC-3
Format/Info: Audio Coding 3
Duration: 20mn 13s
Bit rate mode: Constant
Bit rate: 384 Kbps
Channel(s): 6 channels
Channel positions: Front: L C R, Surround: L R, LFE
Sampling rate: 48.0 KHz
Video delay: -608ms
Stream size: 55.6 MiB (5%)

Text #1
ID: 32 (0x20)
Format: RLE
Format/Info: Run-length encoding
Duration: 20mn 12s
Video delay: -608ms

Text #2
ID: 33 (0x21)
Format: RLE
Format/Info: Run-length encoding
Duration: 20mn 12s
Video delay: -608ms

Text #3
ID: 34 (0x22)
Format: RLE
Format/Info: Run-length encoding
Duration: 20mn 12s
Video delay: -608ms

Text #4
ID: 35 (0x23)
Format: RLE
Format/Info: Run-length encoding
Duration: 20mn 11s
Video delay: -608ms

Text #5
ID: 37 (0x25)
Format: RLE
Format/Info: Run-length encoding
Duration: 20mn 12s
Video delay: -608ms

Text #6
ID: 38 (0x26)
Format: RLE
Format/Info: Run-length encoding
Duration: 20mn 12s
Video delay: -608ms

Text #7
ID: 39 (0x27)
Format: RLE
Format/Info: Run-length encoding
Duration: 20mn 12s
Video delay: -608ms

Text #8
ID: 40 (0x2
Format: RLE
Format/Info: Run-length encoding
Duration: 20mn 12s
Video delay: -608ms

Text #9
ID: 41 (0x29)
Format: RLE
Format/Info: Run-length encoding
Duration: 20mn 12s
Video delay: -608ms

Text #10
ID: 42 (0x2A)
Format: RLE
Format/Info: Run-length encoding
Duration: 20mn 11s
Video delay: -608ms

Text #11
ID: 43 (0x2B)
Format: RLE
Format/Info: Run-length encoding
Duration: 20mn 12s
Video delay: -608ms

Text #12
ID: 44 (0x2C)
Format: RLE
Format/Info: Run-length encoding
Duration: 20mn 11s
Video delay: -608ms

Text #13
ID: 45 (0x2D)
Format: RLE
Format/Info: Run-length encoding
Duration: 20mn 12s
Video delay: -608ms

Text #14
ID: 46 (0x2E)
Format: RLE
Format/Info: Run-length encoding
Duration: 20mn 12s
Video delay: -608ms

Text #15
ID: 47 (0x2F)
Format: RLE
Format/Info: Run-length encoding
Duration: 20mn 12s
Video delay: -608ms

Text #16
ID: 48 (0x30)
Format: RLE
Format/Info: Run-length encoding
Duration: 20mn 12s
Video delay: -608ms

Text #17
ID: 49 (0x31)
Format: RLE
Format/Info: Run-length encoding
Duration: 20mn 12s
Video delay: -608ms

Text #18
ID: 50 (0x32)
Format: RLE
Format/Info: Run-length encoding
Duration: 20mn 12s
Video delay: -608ms

Menu
Format: DVD-Video

Сценарий: Сара Торп
Продюсер: Нил Х. Мориц, Райан Кэвэна, Дональд Дж. Ли мл., ...
Оператор: Оливер Бокельберг
Композитор: Джордж Фентон
Художник: Джейн Маски, Софи Карбонелл, Эллен Кристиансен
Монтаж: Трой Такаки
Бюджет: $40 000 000
Сборы в США: $67 061 228
Сборы в мире: + $69 249 098 = $136 310 326
Сборы в России: $6 389 807
DVD в США: $17 154 649
Зрители: Россия1.01 млн.
Премьера (мир): 17 марта 2010
Премьера (РФ): 18 марта 2010, «WDSSPR»
Релиз на Blu-Ray: 19 августа 2010, «Columbia/Sony», ...
Релиз на DVD: 15 апреля 2010, «Columbia/Sony», ...





























Поделиться:




реклама партнёра


Вернуться к началу
 Профиль Отправить личное сообщение  
 
   Похожие торренты   Автор   Торрент   Размер 
В этой теме нет новых непрочитанных сообщений. Охотники за головами / Bounty Hunters [боевик, мелодрама, комедия, 2016] WEB-DL 720p, dvo

marya111

0 | 0

2.8 ГБ

В этой теме нет новых непрочитанных сообщений. Охотники за головами / Bounty Hunters [боевик, мелодрама, комедия, 2016] BDRemux 1080p, Mvo

salma3

87 | 40

18.52 ГБ

В этой теме нет новых непрочитанных сообщений. Охотники за головами / Bounty Hunters (Боевик, мелодрама, комедия, 2016) BDRip от ExKinoRay | L

marya111

66 | 2

1.45 ГБ

В этой теме нет новых непрочитанных сообщений. Вольный охотник / Bounty Tracker [Боевик, 1993] DVDRip, Avo

salma3

12 | 0

1.45 ГБ

В этой теме нет новых непрочитанных сообщений. Вольный Охотник / Bounty Tracker [боевик, 1993] DVDRip-AVC, Dvo+Avo+Sub

salma3

36 | 5

2.17 ГБ

В этой теме нет новых непрочитанных сообщений. Безмолвный охотник / Silent Hunter [Боевик, 1995] DVDRip, Avo

salma3

335 | 14

1.37 ГБ

В этой теме нет новых непрочитанных сообщений. Звёздный охотник / Star Hunter [Фантастика, боевик, 1995] DVDRip, Mvo

salma3

41 | 21

1.7 ГБ


Начать новую тему Ответить на тему  [ 1 сообщение ] 




Для Мосгорсуда, Роскомнадзора и рекламодателей:: mosgorsud-torrent[собачка]yandex.ru