Торрент файл
скачать торрент магнет ссылка Добавлен: 07 янв 2012, 19:08
Размер: 6.51 ГБ
Сидеров: 0
Личеров: 6
Автор

СообщениеДобавлено: 07 янв 2012, 19:08 

Не в сети
Супермодератор
Аватара пользователя
Дата регистрации:
11 апр 2010, 18:10
Спасибо: 5960 / 7
Сообщения: 56765
Правила секса 2: Хэппиэнд / Happy Endings


Перевод: Профессиональный (полное дублирование)
Субтитры: Русские
Формат: DVD9, DVD Video, MPEG2, AC3
Страна: США
Режиссер: Дон Рус
Жанр: триллер, драма, комедия, музыка
Продолжительность: 02:07:30
Год выпуска: 2004

В ролях: Лиза Кудроу,Стив Кугэн, Джесси Брэдфорд, Бобби Каннавале, Мэгги Джилленхол, Джейсон Риттер, Том Арнольд, Дэвид Сатклифф, Сара Кларк, Лора Дерн

Описание: 10 параллельных историй о странностях любви. Одна из новелл посвящена отцу и сыну, которые встречаются с одной и той же женщиной. Другая о девушке, которая отдала своего ребенка на усыновление, а потом встретила человека, который утверждает, что знает, где теперь ее отпрыск.

Две лесбиянки воспользовались услугами друга-гея для зачатия ребенка и теперь говорят, что ничего не получилось, но их двухлетний сын так похож на него…


Рейтинг на IMDB: 6.5/10
Рейтинг МРАА: R
Рейтинг КиноПоиск.RU: 5.336

Видео: 720x576 (PAL 16:9), 25,000 fps, MPEG-2 Video ~ 8000 kbps avg
Аудио #1: Русский: 48 kHz, AC3 Dolby Digital, ~ 6 ch, 448 kbps avg [Профессиональный (полное дублирование)]
Аудио #2: Английский: 48 kHz, AC3 Dolby Digital, 6 ch, ~ 448 kbps avg [Оригинал]

Слоган: Всё хорошо,что хорошо кончается...

Доп.информация: [ Лицензионное издание «CP Digital»]
Meню озвученное, анимированное, на русском языке, с навигацией по эпизодам. Все кнопки функциональны.


Общее
Полное имя: D:\DVD\Правила секса 2\VIDEO_TS\VTS_06_3.VOB
Формат: MPEG-PS
Размер файла: 1024 Мбайт
Продолжительность: 23 м.
Общий поток: 6203 Кбит/сек

Видео
Идентификатор: 224 (0xE0)
Формат: MPEG Video
Версия формата: Version 2
Профиль формата: Main@Main
Параметр BVOP формата: Да
Параметр матрицы формата: По умолчанию
Параметры GOP формата: M=3, N=12
Продолжительность: 23 м.
Вид битрейта: Переменный
Битрейт: 5183 Кбит/сек
Номинальный битрейт: 8000 Кбит/сек
Ширина: 720 пикс.
Высота: 576 пикс.
Соотношение сторон: 16:9
Частота кадров: 25,000 кадр/сек
Стандарт вещания: PAL
Цветовое пространство: YUV
Подвыборка цветности: 4:2:0
Битовая глубина: 8 бит
Тип развёртки: Чересстрочная
Порядок развёртки: Верхнее поле первое
Метод сжатия: С потерями
Бит/(Пиксели*Кадры): 0.500
Размер потока: 855 Мбайт (84%)

Аудио #1
Идентификатор: 128 (0x80)
Формат: AC-3
Формат/Информация: Audio Coding 3
Расширение режима: CM (complete main)
Продолжительность: 23 м.
Вид битрейта: Постоянный
Битрейт: 448 Кбит/сек
Канал(ы): 6 канала(ов)
Расположение каналов: Front: L C R, Side: L R, LFE
Частота: 48,0 КГц
Битовая глубина: 16 бит
Метод сжатия: С потерями
Задержка видео: -656 мс.
Размер потока: 74,0 Мбайт (7%)

Аудио #2
Идентификатор: 129 (0x81)
Формат: AC-3
Формат/Информация: Audio Coding 3
Расширение режима: CM (complete main)
Продолжительность: 23 м.
Вид битрейта: Постоянный
Битрейт: 448 Кбит/сек
Канал(ы): 6 канала(ов)
Расположение каналов: Front: L C R, Side: L R, LFE
Частота: 48,0 КГц
Битовая глубина: 16 бит
Метод сжатия: С потерями
Задержка видео: -656 мс.
Размер потока: 74,0 Мбайт (7%)

Текст
Идентификатор: 32 (0x20)
Формат: RLE
Формат/Информация: Run-length encoding
Задержка видео: -320 мс.



















Поделиться:




реклама партнёра


Вернуться к началу
 Профиль Отправить личное сообщение  
 
   Похожие торренты   Автор   Торрент   Размер 
В этой теме нет новых непрочитанных сообщений. Happy Endings Vol. 2 / Счастливое Окончание 2 (Brazzers) [2017 г., Gonzo, Big Boobs, DVDRip]

salma3

29 | 10

2.12 ГБ

В этой теме нет новых непрочитанных сообщений. После секса / После соития / Post coitum [Эротика, комедия, 2004] DVDRip-AVC, Avo

salma3

189 | 17

2.18 ГБ

В этой теме нет новых непрочитанных сообщений. У моря / Beyond the Sea [драма, музыка, биография, мюзикл, 2004] 2004, BDRemux 1080р, Dub+Sub

salma3

25 | 18

19.38 ГБ

В этой теме нет новых непрочитанных сообщений. После секса / After sex [Комедия, драма, мелодрама, 2000] DVDRip-AVC, Dvo

salma3

116 | 51

1.46 ГБ

В этой теме нет новых непрочитанных сообщений. 1+1. Нарушая правила / Inseparables [драма, комедия, 2016] WEB-DL 1080р, Mvo [iTunes]

salma3

524 | 210

3.84 ГБ

В этой теме нет новых непрочитанных сообщений. 1+1. Нарушая правила / Inseparables [драма, комедия, 2016] WEB-DLRip-AVC, Mvo [iTunes]

salma3

113 | 21

1.77 ГБ

В этой теме нет новых непрочитанных сообщений. 1+1. Нарушая правила / Inseparables [драма, комедия, 2016] WEB-DLRip, Mvo [iTunes]

salma3

967 | 191

1.46 ГБ


Начать новую тему Ответить на тему  [ 1 сообщение ] 




Для Мосгорсуда, Роскомнадзора и рекламодателей:: mosgorsud-torrent[собачка]yandex.ru