Торрент файл
скачать торрент магнет ссылка Добавлен: 07 янв 2012, 19:07
Размер: 5.83 ГБ
Сидеров: 0
Личеров: 5
Автор

СообщениеДобавлено: 07 янв 2012, 19:07 

Не в сети
Супермодератор
Аватара пользователя
Дата регистрации:
11 апр 2010, 18:10
Спасибо: 5798 / 7
Сообщения: 56779
Гнездо жаворонка / La masseria delle allodole


Перевод: Профессиональный (многоголосый, закадровый)
Субтитры: Русские
Формат: DVD9, DVD Video, MPEG2, AC3
Страна: Франция, Великобритания, Италия, Испания, Болгария
Режиссер: Паоло Тавиани, Витторио Тавиани
Жанр: драма
Продолжительность: 01:55:22
Год выпуска: 2007

В ролях: Паз Вега, Мориц Бляйбтрой, Алессандро Прециози, Анхела Молина, Арсинэ Ханджян, Мохаммед Бакри, Чеки Карио, Мариано Риджилло, Христо Шопов, Христо Живков

Описание: 1915 год. Два армянских брата Арам и Асатур не виделись друг с другом 20 лет и мечтают о встрече. Один из них — успешный доктор, эмигрировал в Венецию, и женился на итальянской графине, другой — землевладелец в маленьком городе Анатолии, где он уважаем и любим не только влиятельным армянским сообществом, но и местными властями Турции.

Асатур и его семья собираются выехать из Венеции в Анатолию. Арам готовится к торжественной встрече брата. Он реставрирует старую виллу, под названием Гнездо Жаворонка. Там они родились и выросли, играли, взрослели и учились противостоять жизненным трудностям. Но их встрече не суждено случиться. Начинается Первая мировая война. Италия закрывает свои границы, а турецкие военнослужащие получают приказ


Рейтинг на IMDB: 6.2/10
Рейтинг КиноПоиск.RU: 7.656

Видео: 720x576 (PAL 4:3), 25,000 fps, MPEG-2 Video ~ 8000 kbps avg
Аудио #1: Русский: 48 kHz, AC3 Dolby Digital, 6 ch, ~ 448 kbps avg [Профессиональный (многоголосый, закадровый)]
Аудио #2: Итальянский: 48 kHz, AC3 Dolby Digital, 6 ch, ~ 448 kbps avg [Оригинал]
Аудио #3: Армянский: 48 kHz, AC3 Dolby Digital, 6 ch, ~ 448 kbps avg

Доп.информация: [ Лицензионное издание «CP Digital»]
Meню озвученное, частисно анимированное, на русском языке, с навигацией по эпизодам. Все кнопки функциональны.


бщее
Полное имя: D:\DVD\Гнездо жаворонка\VIDEO_TS\VTS_05_3.VOB
Формат: MPEG-PS
Размер файла: 1024 Мбайт
Продолжительность: 22 м.
Общий поток: 6396 Кбит/сек

Видео
Идентификатор: 224 (0xE0)
Формат: MPEG Video
Версия формата: Version 2
Профиль формата: Main@Main
Параметр BVOP формата: Да
Параметр матрицы формата: По умолчанию
Параметры GOP формата: M=3, N=15
Продолжительность: 22 м.
Вид битрейта: Переменный
Битрейт: 4924 Кбит/сек
Номинальный битрейт: 8000 Кбит/сек
Ширина: 720 пикс.
Высота: 576 пикс.
Соотношение сторон: 4:3
Частота кадров: 25,000 кадр/сек
Стандарт вещания: PAL
Цветовое пространство: YUV
Подвыборка цветности: 4:2:0
Битовая глубина: 8 бит
Тип развёртки: Чересстрочная
Порядок развёртки: Верхнее поле первое
Метод сжатия: С потерями
Бит/(Пиксели*Кадры): 0.475
Размер потока: 788 Мбайт (77%)

Аудио #1
Идентификатор: 128 (0x80)
Формат: AC-3
Формат/Информация: Audio Coding 3
Расширение режима: CM (complete main)
Продолжительность: 22 м.
Вид битрейта: Постоянный
Битрейт: 448 Кбит/сек
Канал(ы): 6 канала(ов)
Расположение каналов: Front: L C R, Side: L R, LFE
Частота: 48,0 КГц
Битовая глубина: 16 бит
Метод сжатия: С потерями
Задержка видео: -752 мс.
Размер потока: 71,7 Мбайт (7%)

Аудио #2
Идентификатор: 129 (0x81)
Формат: AC-3
Формат/Информация: Audio Coding 3
Расширение режима: CM (complete main)
Продолжительность: 22 м.
Вид битрейта: Постоянный
Битрейт: 448 Кбит/сек
Канал(ы): 6 канала(ов)
Расположение каналов: Front: L C R, Side: L R, LFE
Частота: 48,0 КГц
Битовая глубина: 16 бит
Метод сжатия: С потерями
Задержка видео: -752 мс.
Размер потока: 71,7 Мбайт (7%)

Аудио #3
Идентификатор: 130 (0x82)
Формат: AC-3
Формат/Информация: Audio Coding 3
Расширение режима: CM (complete main)
Продолжительность: 22 м.
Вид битрейта: Постоянный
Битрейт: 448 Кбит/сек
Канал(ы): 6 канала(ов)
Расположение каналов: Front: L C R, Side: L R, LFE
Частота: 48,0 КГц
Битовая глубина: 16 бит
Метод сжатия: С потерями
Задержка видео: -752 мс.
Размер потока: 71,7 Мбайт (7%)

Текст
Идентификатор: 32 (0x20)
Формат: RLE
Формат/Информация: Run-length encoding



















Поделиться:




реклама партнёра


Вернуться к началу
 Профиль Отправить личное сообщение  
 
   Похожие торренты   Автор   Торрент   Размер 
В этой теме нет новых непрочитанных сообщений. Декамерон / Maraviglioso Boccaccio (Паоло Тавиани, Витторио Тавиани) [Драма, комедия, история, 2015] WEBRip, dub [Чистый звук]

Dracon

812 | 30

2.19 ГБ

В этой теме нет новых непрочитанных сообщений. Декамерон / Maraviglioso Boccaccio (Паоло Тавиани, Витторио Тавиани) [Драма, комедия, история, 2015] WEBRip, dub [Чистый звук]

Dracon

1906 | 75

1.37 ГБ

В этой теме нет новых непрочитанных сообщений. Декамерон / Maraviglioso Boccaccio (Паоло Тавиани, Витторио Тавиани) [Драма, комедия, история, 2015] WEBRip 720p, dub [Чистый звук]

Dracon

696 | 46

4.41 ГБ

В этой теме нет новых непрочитанных сообщений. Il Tempio Delle Clessidre - Alienatura [2013, Progressive Rock, MP3]

PriZraK

0 | 1

131.19 МБ

В этой теме нет новых непрочитанных сообщений. Цена человека / Il capitale umano (Паоло Вирдзи) [драма, 2013] HDRip, Mvo

Dracon

6 | 4

1.46 ГБ

В этой теме нет новых непрочитанных сообщений. Молодость / Youth (Паоло Соррентино) [драма, 2015] HDRip, dub [Чистый звук]

Dracon

23534 | 2208

1.45 ГБ

В этой теме нет новых непрочитанных сообщений. Цена человека / Il capitale umano (Паоло Вирдзи) [драма, 2013] BDRip 1080p, Mvo

Dracon

4 | 3

10.01 ГБ


Начать новую тему Ответить на тему  [ 1 сообщение ] 




Для Мосгорсуда, Роскомнадзора и рекламодателей:: mosgorsud-torrent[собачка]yandex.ru