Торрент файл
скачать торрент магнет ссылка Добавлен: 07 янв 2012, 19:07
Размер: 6.23 ГБ
Сидеров: 0
Личеров: 5
Автор

СообщениеДобавлено: 07 янв 2012, 19:07 

Не в сети
Супермодератор
Аватара пользователя
Дата регистрации:
11 апр 2010, 18:10
Спасибо: 5801 / 7
Сообщения: 56779
Патруль времени / Mei loi ging chaat


Перевод: Профессиональный (многоголосый, закадровый)
Cубтитры:Отсутсвуют
Формат: DVD9, DVD Video, MPEG2, AC3
Страна: Тайвань, Гонконг
Режиссер: Джин Вонг
Жанр: фантастика
Продолжительность: 01:36:20
Год выпуска: 2010

В ролях: Энди Лау, Барби Хсю, Фань Бинбин, Джиао Ксу, Майк Хе, Фан Сю-Вонг, Йифей Тэнг, Цзину Ма, Кар-Йинг Лау, Кин-Ян Ли

Описание: 2080 год. Во время выставки древних экспонатов на знаменитого ученого нападает отряд киборгов. Убить доктора Мастерсона им не удается, но погибает жена полицейского инспектора Кидда. Теперь его цель — отомстить. Кидд отправляется в прошлое, в 2020-й год, куда должны отправиться и киборги, чтобы, все-таки, убить Мастерсона, пока тот — еще ребенок.

Рейтинг IMDB 4.0/10
Рейтинг КиноПоиск.RU: 3.467

Видео: 720x576, (PAL 16:9), 25,000 кадр/сек, MPEG 2 Video, ~9000 Кбит/сек
Аудио#1:Русский 48,0 КГц, Dolby AC3, 6 ch, ~448 Кбит/сек [Профессиональный (многоголосый закадровый)]

Доп.информация: Лицензионное издание

Общее
Полное имя: C:\Documents and Settings\Admin.MICROSOF-68219C\Мои документы\Загрузки\Patrul_vremeny\VIDEO_TS\VTS_03_6.VOB
Формат: MPEG-PS
Размер файла: 1024 Мбайт
Продолжительность: 16 м.
Общий поток: 8921 Кбит/сек

Видео
Идентификатор: 224 (0xE0)
Формат: MPEG Video
Версия формата: Version 2
Профиль формата: Main@Main
Параметр BVOP формата: Да
Параметр матрицы формата: По умолчанию
Продолжительность: 16 м.
Вид битрейта: Переменный
Битрейт: 8295 Кбит/сек
Номинальный битрейт: 9000 Кбит/сек
Ширина: 720 пикс.
Высота: 576 пикс.
Соотношение сторон: 16:9
Частота кадров: 25,000 кадр/сек
Стандарт вещания: PAL
Цветовое пространство: YUV
Подвыборка цветности: 4:2:0
Битовая глубина: 8 бит
Тип развёртки: Чересстрочная
Порядок развёртки: Верхнее поле первое
Метод сжатия: С потерями
Бит/(Пиксели*Кадры): 0.800
Размер потока: 952 Мбайт (93%)

Аудио
Идентификатор: 128 (0x80)
Формат: AC-3
Формат/Информация: Audio Coding 3
Расширение режима: CM (complete main)
Продолжительность: 16 м.
Вид битрейта: Постоянный
Битрейт: 448 Кбит/сек
Канал(ы): 6 канала(ов)
Расположение каналов: Front: L C R, Side: L R, LFE
Частота: 48,0 КГц
Битовая глубина: 16 бит
Метод сжатия: С потерями
Задержка видео: -320 мс.
Размер потока: 51,4 Мбайт (5%)











Поделиться:




реклама партнёра


Вернуться к началу
 Профиль Отправить личное сообщение  
 
   Похожие торренты   Автор   Торрент   Размер 
В этой теме нет новых непрочитанных сообщений. Первый удар / Ging chaat goo si 4: Ji gaan daan yam mo [боевик, триллер, драма, 1995] DVDRip, Avo [Гаврилов]

salma3

32 | 8

1.46 ГБ

В этой теме нет новых непрочитанных сообщений. Патруль времени / Predestination (ДБ) [Фантастика, Триллер, 2014] HDRip, Dub [Лицензия]

Dracon

9 | 2

744.83 МБ

В этой теме нет новых непрочитанных сообщений. Патруль времени / Predestination [Фантастика, Триллер, 2014] BDRip 1080p, Mvo

Dracon

115 | 11

6.59 ГБ

В этой теме нет новых непрочитанных сообщений. Патруль времени / Predestination [Фантастика, Триллер, 2014] HDRip, [BaibaKo]

Dracon

1 | 2

1.37 ГБ

В этой теме нет новых непрочитанных сообщений. Призрачный патруль / R.I.P.D. [Комедия, фантастика, боевик, 2013] HDRip -AVC, Dub+Sub [Лицензия]

Dracon

17 | 2

1.45 ГБ

В этой теме нет новых непрочитанных сообщений. Патруль времени / Предопределение / Predestination [Фантастика, Триллер, 2014] HDRip, Mvo

Dracon

369 | 6

1.45 ГБ

В этой теме нет новых непрочитанных сообщений. Клетка тигра / Dak ging to lung [Боевик, 1988] HDRip 720p, Avo

salma3

23 | 11

2.19 ГБ


Начать новую тему Ответить на тему  [ 1 сообщение ] 




Для Мосгорсуда, Роскомнадзора и рекламодателей:: mosgorsud-torrent[собачка]yandex.ru